  0
SECTION
  2
HEADER
  9
$ACADVER
  1
AC1032
  9
$ACADMAINTVER
 90
      204
  9
$DWGCODEPAGE
  3
ANSI_1252
  9
$LASTSAVEDBY
  1
kentp
  9
$REQUIREDVERSIONS
160
                 0
  9
$INSBASE
 10
0.0
 20
0.0
 30
0.0
  9
$EXTMIN
 10
0.373195560163623
 20
0.3709997279186723
 30
-0.0015258207003583
  9
$EXTMAX
 10
109.6792552230985
 20
69.86945268794872
 30
0.0000000349246037
  9
$LIMMIN
 10
0.0
 20
0.0
  9
$LIMMAX
 10
12.0
 20
9.0
  9
$ORTHOMODE
 70
     1
  9
$REGENMODE
 70
     1
  9
$FILLMODE
 70
     1
  9
$QTEXTMODE
 70
     0
  9
$MIRRTEXT
 70
     0
  9
$LTSCALE
 40
1.0
  9
$ATTMODE
 70
     1
  9
$TEXTSIZE
 40
0.125
  9
$TRACEWID
 40
0.05
  9
$TEXTSTYLE
  7
Standard
  9
$CLAYER
  8
0
  9
$CELTYPE
  6
ByLayer
  9
$CECOLOR
 62
   256
  9
$CELTSCALE
 40
1.0
  9
$DISPSILH
 70
     0
  9
$DIMSCALE
 40
1.0
  9
$DIMASZ
 40
0.25
  9
$DIMEXO
 40
0.125
  9
$DIMDLI
 40
0.375
  9
$DIMRND
 40
0.0
  9
$DIMDLE
 40
0.0
  9
$DIMEXE
 40
0.125
  9
$DIMTP
 40
0.0
  9
$DIMTM
 40
0.0
  9
$DIMTXT
 40
0.25
  9
$DIMCEN
 40
-0.0625
  9
$DIMTSZ
 40
0.0
  9
$DIMTOL
 70
     0
  9
$DIMLIM
 70
     0
  9
$DIMTIH
 70
     0
  9
$DIMTOH
 70
     0
  9
$DIMSE1
 70
     0
  9
$DIMSE2
 70
     0
  9
$DIMTAD
 70
     1
  9
$DIMZIN
 70
     0
  9
$DIMBLK
  1

  9
$DIMASO
 70
     1
  9
$DIMSHO
 70
     1
  9
$DIMPOST
  1

  9
$DIMAPOST
  1
mm
  9
$DIMALT
 70
     0
  9
$DIMALTD
 70
     3
  9
$DIMALTF
 40
25.4
  9
$DIMLFAC
 40
1.0
  9
$DIMTOFL
 70
     0
  9
$DIMTVP
 40
0.0
  9
$DIMTIX
 70
     0
  9
$DIMSOXD
 70
     0
  9
$DIMSAH
 70
     0
  9
$DIMBLK1
  1

  9
$DIMBLK2
  1

  9
$DIMSTYLE
  2
STANDARD
  9
$DIMCLRD
 70
   256
  9
$DIMCLRE
 70
   256
  9
$DIMCLRT
 70
   256
  9
$DIMTFAC
 40
1.0
  9
$DIMGAP
 40
0.094
  9
$DIMJUST
 70
     0
  9
$DIMSD1
 70
     0
  9
$DIMSD2
 70
     0
  9
$DIMTOLJ
 70
     1
  9
$DIMTZIN
 70
     3
  9
$DIMALTZ
 70
     3
  9
$DIMALTTZ
 70
     3
  9
$DIMUPT
 70
     0
  9
$DIMDEC
 70
     4
  9
$DIMTDEC
 70
     4
  9
$DIMALTU
 70
     5
  9
$DIMALTTD
 70
     3
  9
$DIMTXSTY
  7
Standard
  9
$DIMAUNIT
 70
     0
  9
$DIMADEC
 70
     2
  9
$DIMALTRND
 40
0.0
  9
$DIMAZIN
 70
     2
  9
$DIMDSEP
 70
    46
  9
$DIMATFIT
 70
     0
  9
$DIMFRAC
 70
     2
  9
$DIMLDRBLK
  1

  9
$DIMLUNIT
 70
     4
  9
$DIMLWD
 70
    -1
  9
$DIMLWE
 70
    -1
  9
$DIMTMOVE
 70
     0
  9
$DIMFXL
 40
1.0
  9
$DIMFXLON
 70
     0
  9
$DIMJOGANG
 40
0.7853981633974483
  9
$DIMTFILL
 70
     0
  9
$DIMTFILLCLR
 70
     0
  9
$DIMARCSYM
 70
     0
  9
$DIMLTYPE
  6
ByLayer
  9
$DIMLTEX1
  6
ByLayer
  9
$DIMLTEX2
  6
ByLayer
  9
$DIMTXTDIRECTION
 70
     0
  9
$LUNITS
 70
     2
  9
$LUPREC
 70
     5
  9
$SKETCHINC
 40
0.1
  9
$FILLETRAD
 40
0.0
  9
$AUNITS
 70
     0
  9
$AUPREC
 70
     0
  9
$MENU
  1
.
  9
$ELEVATION
 40
0.0
  9
$PELEVATION
 40
0.0
  9
$THICKNESS
 40
0.0
  9
$LIMCHECK
 70
     0
  9
$CHAMFERA
 40
0.0
  9
$CHAMFERB
 40
0.0
  9
$CHAMFERC
 40
0.0
  9
$CHAMFERD
 40
0.0
  9
$SKPOLY
 70
     0
  9
$TDCREATE
 40
2456003.310486111
  9
$TDUCREATE
 40
2456003.477156991
  9
$TDUPDATE
 40
2460265.394421296
  9
$TDUUPDATE
 40
2460265.602754630
  9
$TDINDWG
 40
0.9810788079
  9
$TDUSRTIMER
 40
0.9810788079
  9
$USRTIMER
 70
     1
  9
$ANGBASE
 50
0.0
  9
$ANGDIR
 70
     0
  9
$PDMODE
 70
     0
  9
$PDSIZE
 40
0.0
  9
$PLINEWID
 40
0.0
  9
$SPLFRAME
 70
     0
  9
$SPLINETYPE
 70
     6
  9
$SPLINESEGS
 70
     8
  9
$HANDSEED
  5
12936
  9
$SURFTAB1
 70
     6
  9
$SURFTAB2
 70
     6
  9
$SURFTYPE
 70
     6
  9
$SURFU
 70
     6
  9
$SURFV
 70
     6
  9
$UCSBASE
  2

  9
$UCSNAME
  2

  9
$UCSORG
 10
0.0
 20
0.0
 30
0.0
  9
$UCSXDIR
 10
1.0
 20
0.0
 30
0.0
  9
$UCSYDIR
 10
0.0
 20
1.0
 30
0.0
  9
$UCSORTHOREF
  2

  9
$UCSORTHOVIEW
 70
     0
  9
$UCSORGTOP
 10
0.0
 20
0.0
 30
0.0
  9
$UCSORGBOTTOM
 10
0.0
 20
0.0
 30
0.0
  9
$UCSORGLEFT
 10
0.0
 20
0.0
 30
0.0
  9
$UCSORGRIGHT
 10
0.0
 20
0.0
 30
0.0
  9
$UCSORGFRONT
 10
0.0
 20
0.0
 30
0.0
  9
$UCSORGBACK
 10
0.0
 20
0.0
 30
0.0
  9
$PUCSBASE
  2

  9
$PUCSNAME
  2

  9
$PUCSORG
 10
0.0
 20
0.0
 30
0.0
  9
$PUCSXDIR
 10
1.0
 20
0.0
 30
0.0
  9
$PUCSYDIR
 10
0.0
 20
1.0
 30
0.0
  9
$PUCSORTHOREF
  2

  9
$PUCSORTHOVIEW
 70
     0
  9
$PUCSORGTOP
 10
0.0
 20
0.0
 30
0.0
  9
$PUCSORGBOTTOM
 10
0.0
 20
0.0
 30
0.0
  9
$PUCSORGLEFT
 10
0.0
 20
0.0
 30
0.0
  9
$PUCSORGRIGHT
 10
0.0
 20
0.0
 30
0.0
  9
$PUCSORGFRONT
 10
0.0
 20
0.0
 30
0.0
  9
$PUCSORGBACK
 10
0.0
 20
0.0
 30
0.0
  9
$USERI1
 70
     0
  9
$USERI2
 70
     0
  9
$USERI3
 70
     0
  9
$USERI4
 70
     0
  9
$USERI5
 70
     0
  9
$USERR1
 40
0.0
  9
$USERR2
 40
0.0
  9
$USERR3
 40
0.0
  9
$USERR4
 40
0.0
  9
$USERR5
 40
0.0
  9
$WORLDVIEW
 70
     1
  9
$SHADEDGE
 70
     3
  9
$SHADEDIF
 70
    70
  9
$TILEMODE
 70
     1
  9
$MAXACTVP
 70
    64
  9
$PINSBASE
 10
0.0
 20
0.0
 30
0.0
  9
$PLIMCHECK
 70
     0
  9
$PEXTMIN
 10
1.000000000000000E+20
 20
1.000000000000000E+20
 30
1.000000000000000E+20
  9
$PEXTMAX
 10
-1.000000000000000E+20
 20
-1.000000000000000E+20
 30
-1.000000000000000E+20
  9
$PLIMMIN
 10
0.0
 20
0.0
  9
$PLIMMAX
 10
12.0
 20
9.0
  9
$UNITMODE
 70
     0
  9
$VISRETAIN
 70
     1
  9
$PLINEGEN
 70
     0
  9
$PSLTSCALE
 70
     1
  9
$TREEDEPTH
 70
  3020
  9
$CMLSTYLE
  2
Standard
  9
$CMLJUST
 70
     0
  9
$CMLSCALE
 40
1.0
  9
$PROXYGRAPHICS
 70
     1
  9
$MEASUREMENT
 70
     0
  9
$CELWEIGHT
370
    -1
  9
$ENDCAPS
280
     0
  9
$JOINSTYLE
280
     0
  9
$LWDISPLAY
290
     0
  9
$INSUNITS
 70
     1
  9
$HYPERLINKBASE
  1

  9
$STYLESHEET
  1
monochrome2.ctb
  9
$XEDIT
290
     1
  9
$CEPSNTYPE
380
     0
  9
$PSTYLEMODE
290
     1
  9
$FINGERPRINTGUID
  2
{27C8F5D7-350D-4F90-9642-51717A561ABA}
  9
$VERSIONGUID
  2
{063ED0B2-7E2E-4846-87E8-DD69A1A5E354}
  9
$EXTNAMES
290
     1
  9
$PSVPSCALE
 40
0.0
  9
$OLESTARTUP
290
     0
  9
$SORTENTS
280
   127
  9
$INDEXCTL
280
     0
  9
$HIDETEXT
280
     1
  9
$XCLIPFRAME
280
     2
  9
$HALOGAP
280
     0
  9
$OBSCOLOR
 70
   257
  9
$OBSLTYPE
280
     0
  9
$INTERSECTIONDISPLAY
280
     0
  9
$INTERSECTIONCOLOR
 70
   257
  9
$DIMASSOC
280
     2
  9
$PROJECTNAME
  1

  9
$CAMERADISPLAY
290
     0
  9
$LENSLENGTH
 40
50.0
  9
$CAMERAHEIGHT
 40
0.0
  9
$STEPSPERSEC
 40
2.0
  9
$STEPSIZE
 40
6.0
  9
$3DDWFPREC
 40
2.0
  9
$PSOLWIDTH
 40
0.25
  9
$PSOLHEIGHT
 40
4.0
  9
$LOFTANG1
 40
1.570796326794896
  9
$LOFTANG2
 40
1.570796326794896
  9
$LOFTMAG1
 40
0.0
  9
$LOFTMAG2
 40
0.0
  9
$LOFTPARAM
 70
     7
  9
$LOFTNORMALS
280
     1
  9
$LATITUDE
 40
37.795
  9
$LONGITUDE
 40
-122.394
  9
$NORTHDIRECTION
 40
0.0
  9
$TIMEZONE
 70
 -8000
  9
$LIGHTGLYPHDISPLAY
280
     1
  9
$TILEMODELIGHTSYNCH
280
     1
  9
$CMATERIAL
347
11
  9
$SOLIDHIST
280
     0
  9
$SHOWHIST
280
     1
  9
$DWFFRAME
280
     2
  9
$DGNFRAME
280
     0
  9
$REALWORLDSCALE
290
     1
  9
$INTERFERECOLOR
 62
     1
  9
$INTERFEREOBJVS
345
33
  9
$INTERFEREVPVS
346
30
  9
$CSHADOW
280
     0
  9
$SHADOWPLANELOCATION
 40
0.0
  0
ENDSEC
  0
SECTION
  2
CLASSES
  0
CLASS
  1
ACDBDICTIONARYWDFLT
  2
AcDbDictionaryWithDefault
  3
ObjectDBX Classes
 90
        0
 91
        1
280
     0
281
     0
  0
CLASS
  1
MATERIAL
  2
AcDbMaterial
  3
ObjectDBX Classes
 90
     1153
 91
        3
280
     0
281
     0
  0
CLASS
  1
VISUALSTYLE
  2
AcDbVisualStyle
  3
ObjectDBX Classes
 90
     4095
 91
       26
280
     0
281
     0
  0
CLASS
  1
SCALE
  2
AcDbScale
  3
ObjectDBX Classes
 90
     1153
 91
       17
280
     0
281
     0
  0
CLASS
  1
TABLESTYLE
  2
AcDbTableStyle
  3
ObjectDBX Classes
 90
     4095
 91
        1
280
     0
281
     0
  0
CLASS
  1
MLEADERSTYLE
  2
AcDbMLeaderStyle
  3
ACDB_MLEADERSTYLE_CLASS
 90
     4095
 91
        1
280
     0
281
     0
  0
CLASS
  1
SORTENTSTABLE
  2
AcDbSortentsTable
  3
ObjectDBX Classes
 90
        0
 91
        5
280
     0
281
     0
  0
CLASS
  1
DIMASSOC
  2
AcDbDimAssoc
  3
"AcDbDimAssoc|Product Desc:     AcDim ARX App For Dimension|Company:          Autodesk, Inc.|WEB Address:      www.autodesk.com"
 90
        0
 91
        0
280
     0
281
     0
  0
CLASS
  1
ACDB_MTEXTOBJECTCONTEXTDATA_CLASS
  2
AcDbMTextObjectContextData
  3
ObjectDBX Classes
 90
     1153
 91
        0
280
     0
281
     0
  0
CLASS
  1
CELLSTYLEMAP
  2
AcDbCellStyleMap
  3
ObjectDBX Classes
 90
     1152
 91
        1
280
     0
281
     0
  0
CLASS
  1
DICTIONARYVAR
  2
AcDbDictionaryVar
  3
ObjectDBX Classes
 90
        0
 91
       13
280
     0
281
     0
  0
CLASS
  1
BREAKDATA
  2
AcDbBreakData
  3
ObjectDBX Classes
 90
     1024
 91
        0
280
     0
281
     0
  0
CLASS
  1
EXACXREFPANELOBJECT
  2
ExAcXREFPanelObject
  3
EXAC_ESW
 90
     1025
 91
        1
280
     0
281
     0
  0
CLASS
  1
NPOCOLLECTION
  2
AcDbImpNonPersistentObjectsCollection
  3
ObjectDBX Classes
 90
     1153
 91
        1
280
     0
281
     0
  0
CLASS
  1
ACAD_EVALUATION_GRAPH
  2
AcDbEvalGraph
  3
ObjectDBX Classes
 90
     1153
 91
        1
280
     0
281
     0
  0
CLASS
  1
ACAECUSTOBJ
  2
AcAeEditorObj
  3
AcAeEditorObj
 90
     1024
 91
        1
280
     0
281
     0
  0
CLASS
  1
ACDB_DYNAMICBLOCKPURGEPREVENTER_VERSION
  2
AcDbDynamicBlockPurgePreventer
  3
ObjectDBX Classes
 90
     1153
 91
        1
280
     0
281
     0
  0
CLASS
  1
MULTILEADER
  2
AcDbMLeader
  3
ACDB_MLEADER_CLASS
 90
     1025
 91
        0
280
     0
281
     1
  0
CLASS
  1
ACDBSECTIONVIEWSTYLE
  2
AcDbSectionViewStyle
  3
ObjectDBX Classes
 90
     1025
 91
        1
280
     0
281
     0
  0
CLASS
  1
ACDBDETAILVIEWSTYLE
  2
AcDbDetailViewStyle
  3
ObjectDBX Classes
 90
     1025
 91
        1
280
     0
281
     0
  0
ENDSEC
  0
SECTION
  2
TABLES
  0
TABLE
  2
VPORT
  5
8
102
{ACAD_XDICTIONARY
360
2324
102
}
330
0
100
AcDbSymbolTable
 70
     1
  0
VPORT
  5
57
330
8
100
AcDbSymbolTableRecord
100
AcDbViewportTableRecord
  2
*Active
 70
     0
 10
0.0
 20
0.0
 11
1.0
 21
1.0
 12
55.02622539163109
 22
35.1202262079337
 13
0.0
 23
0.0
 14
0.5
 24
0.5
 15
0.5
 25
0.5
 16
0.0
 26
0.0
 36
1.0
 17
0.0
 27
0.0
 37
0.0
 40
70.01645385165762
 41
1.998756218905472
 42
50.0
 43
0.0
 44
0.0
 50
0.0
 51
0.0
 71
     0
 72
  1000
 73
     1
 74
     3
 75
     0
 76
     0
 77
     0
 78
     0
281
     0
 65
     1
110
0.0
120
0.0
130
0.0
111
1.0
121
0.0
131
0.0
112
0.0
122
1.0
132
0.0
 79
     0
146
0.0
348
2F
 60
     3
 61
     5
292
     1
282
     1
141
0.0
142
0.0
 63
   250
421
  3355443
1001
ACAD_NAV_VCDISPLAY
1070
     0
  0
ENDTAB
  0
TABLE
  2
LTYPE
  5
5
330
0
100
AcDbSymbolTable
 70
     2
  0
LTYPE
  5
5B
330
5
100
AcDbSymbolTableRecord
100
AcDbLinetypeTableRecord
  2
ByBlock
 70
     0
  3

 72
    65
 73
     0
 40
0.0
  0
LTYPE
  5
5C
330
5
100
AcDbSymbolTableRecord
100
AcDbLinetypeTableRecord
  2
ByLayer
 70
     0
  3

 72
    65
 73
     0
 40
0.0
  0
LTYPE
  5
5D
330
5
100
AcDbSymbolTableRecord
100
AcDbLinetypeTableRecord
  2
Continuous
 70
     0
  3
Solid line
 72
    65
 73
     0
 40
0.0
  0
ENDTAB
  0
TABLE
  2
LAYER
  5
2
102
{ACAD_XDICTIONARY
360
677
102
}
330
0
100
AcDbSymbolTable
 70
     7
  0
LAYER
  5
54
330
2
100
AcDbSymbolTableRecord
100
AcDbLayerTableRecord
  2
0
 70
     0
 62
     4
  6
Continuous
370
    -3
390
F
347
21
348
0
  0
LAYER
  5
66B
330
2
100
AcDbSymbolTableRecord
100
AcDbLayerTableRecord
  2
DEFPOINTS
 70
     1
 62
   251
  6
Continuous
290
     0
370
    -3
390
F
347
21
348
0
  0
LAYER
  5
B0A
102
{ACAD_XDICTIONARY
360
B0B
102
}
330
2
100
AcDbSymbolTableRecord
100
AcDbLayerTableRecord
  2
TEXT
 70
     0
 62
     3
  6
Continuous
370
    -3
390
F
347
21
348
0
  0
LAYER
  5
5701
330
2
100
AcDbSymbolTableRecord
100
AcDbLayerTableRecord
  2
FORMAT
 70
     0
 62
     7
  6
Continuous
370
    -3
390
F
347
21
348
0
1001
AcAecLayerStandard
1000

1000

1001
AcCmTransparency
1071
        0
  0
LAYER
  5
FF16
102
{ACAD_XDICTIONARY
360
FF17
102
}
330
2
100
AcDbSymbolTableRecord
100
AcDbLayerTableRecord
  2
DIME
 70
     0
 62
     2
  6
Continuous
370
    -3
390
F
347
21
348
0
  0
LAYER
  5
FF1A
330
2
100
AcDbSymbolTableRecord
100
AcDbLayerTableRecord
  2
INSERTION_PT
 70
     0
 62
     1
  6
Continuous
290
     0
370
    -3
390
F
347
21
348
0
1001
AcAecLayerStandard
1000

1000

1001
AcCmTransparency
1071
        0
  0
LAYER
  5
124D9
330
2
100
AcDbSymbolTableRecord
100
AcDbLayerTableRecord
  2
Kawneer Logo-English
 70
     0
 62
     7
  6
Continuous
370
    -3
390
F
347
21
348
0
1001
AcAecLayerStandard
1000

1000

1001
AcCmTransparency
1071
        0
  0
ENDTAB
  0
TABLE
  2
STYLE
  5
3
330
0
100
AcDbSymbolTable
 70
     1
  0
STYLE
  5
55
330
3
100
AcDbSymbolTableRecord
100
AcDbTextStyleTableRecord
  2
Standard
 70
     0
 40
0.0
 41
1.0
 50
0.0
 71
     0
 42
0.125
  3
arial.ttf
  4

1001
ACAD
1000
Arial
1071
       34
  0
ENDTAB
  0
TABLE
  2
VIEW
  5
6
330
0
100
AcDbSymbolTable
 70
     1
  0
ENDTAB
  0
TABLE
  2
UCS
  5
7
330
0
100
AcDbSymbolTable
 70
     0
  0
ENDTAB
  0
TABLE
  2
APPID
  5
9
330
0
100
AcDbSymbolTable
 70
    16
  0
APPID
  5
56
330
9
100
AcDbSymbolTableRecord
100
AcDbRegAppTableRecord
  2
ACAD
 70
     0
  0
APPID
  5
76
330
9
100
AcDbSymbolTableRecord
100
AcDbRegAppTableRecord
  2
ACAD_NAV_VCDISPLAY
 70
     0
  0
APPID
  5
672
330
9
100
AcDbSymbolTableRecord
100
AcDbRegAppTableRecord
  2
ACAD_DSTYLE_DIMJAG
 70
     0
  0
APPID
  5
673
330
9
100
AcDbSymbolTableRecord
100
AcDbRegAppTableRecord
  2
ACAD_DSTYLE_DIMTALN
 70
     0
  0
APPID
  5
674
330
9
100
AcDbSymbolTableRecord
100
AcDbRegAppTableRecord
  2
ACAD_PSEXT
 70
     0
  0
APPID
  5
B16
330
9
100
AcDbSymbolTableRecord
100
AcDbRegAppTableRecord
  2
AcAecLayerStandard
 70
     0
  0
APPID
  5
B18
330
9
100
AcDbSymbolTableRecord
100
AcDbRegAppTableRecord
  2
AcCmTransparency
 70
     0
  0
APPID
  5
5E4A
330
9
100
AcDbSymbolTableRecord
100
AcDbRegAppTableRecord
  2
ACAD_DSTYLE_DIMBREAK
 70
     0
  0
APPID
  5
127FF
330
9
100
AcDbSymbolTableRecord
100
AcDbRegAppTableRecord
  2
ACAD_MLEADERVER
 70
     0
  0
APPID
  5
12807
330
9
100
AcDbSymbolTableRecord
100
AcDbRegAppTableRecord
  2
ACAD_DSTYLE_DIM_LINETYPE
 70
     0
  0
APPID
  5
12808
330
9
100
AcDbSymbolTableRecord
100
AcDbRegAppTableRecord
  2
ACAD_DSTYLE_DIM_EXT1_LINETYPE
 70
     0
  0
APPID
  5
12809
330
9
100
AcDbSymbolTableRecord
100
AcDbRegAppTableRecord
  2
ACAD_DSTYLE_DIM_EXT2_LINETYPE
 70
     0
  0
APPID
  5
12822
330
9
100
AcDbSymbolTableRecord
100
AcDbRegAppTableRecord
  2
ACAD_EXEMPT_FROM_CAD_STANDARDS
 70
     0
  0
APPID
  5
128D8
330
9
100
AcDbSymbolTableRecord
100
AcDbRegAppTableRecord
  2
ACAUTHENVIRON
 70
     0
  0
APPID
  5
128DB
330
9
100
AcDbSymbolTableRecord
100
AcDbRegAppTableRecord
  2
AcDbDynamicBlockTrueName
 70
     0
  0
APPID
  5
128DC
330
9
100
AcDbSymbolTableRecord
100
AcDbRegAppTableRecord
  2
AcDbDynamicBlockGUID
 70
     0
  0
ENDTAB
  0
TABLE
  2
DIMSTYLE
  5
A
330
0
100
AcDbSymbolTable
 70
     3
100
AcDbDimStyleTable
 71
     1
340
5E4B
  0
DIMSTYLE
105
5E4B
330
A
100
AcDbSymbolTableRecord
100
AcDbDimStyleTableRecord
  2
STANDARD
 70
     0
  4
mm
 41
0.25
 42
0.125
 43
0.375
 44
0.125
 73
     0
 74
     0
 77
     1
 79
     2
140
0.25
141
-0.0625
147
0.094
171
     3
176
   256
177
   256
178
   256
179
     2
273
     5
274
     3
276
     2
277
     4
284
     3
285
     3
286
     3
289
     0
340
55
345
5C
346
5C
347
5C
371
    -1
372
    -1
1001
ACAD_DSTYLE_DIMBREAK
1070
   391
1040
0.125
1001
ACAD_DSTYLE_DIMJAG
1070
   388
1040
1.5
1001
ACAD_DSTYLE_DIMTALN
1070
   392
1070
     0
  0
DIMSTYLE
105
FF1B
102
{ACAD_REACTORS
330
117AD
330
117AE
330
117AF
330
117BB
330
117BC
330
117BD
330
119CC
330
119CD
330
119CE
330
119CF
330
119D0
330
119D2
330
11B70
330
11BEF
330
11D4D
330
11D4E
330
11D50
330
11D51
330
11D52
330
11D54
330
11EAE
330
11EAF
330
11EB1
102
}
330
A
100
AcDbSymbolTableRecord
100
AcDbDimStyleTableRecord
  2
EXT_ON-OFF
 70
     0
  3
"
  4
mm
 40
2.0
 41
0.125
 42
0.1875
 43
0.1875
 44
0.09
 73
     0
 74
     0
 76
     1
 77
     3
 78
     3
140
0.125
141
0.0
147
0.05
171
     3
179
     2
271
     5
272
     5
273
     5
274
     3
276
     2
277
     5
284
     3
285
     3
286
     3
289
     0
340
55
  0
DIMSTYLE
105
FF1C
102
{ACAD_REACTORS
330
117A6
330
117B0
330
117B2
330
117C6
330
119C5
330
119D1
330
119D4
330
119D6
330
11B72
330
11BF1
330
11D4F
330
11D53
330
11EB0
102
}
330
A
100
AcDbSymbolTableRecord
100
AcDbDimStyleTableRecord
  2
EXT_ON-ON
 70
     0
  3
"
  4
mm
 40
2.0
 41
0.125
 42
0.1875
 43
0.1875
 44
0.09
 73
     0
 74
     0
 77
     3
 78
     3
140
0.125
141
0.0
147
0.05
171
     3
179
     2
271
     5
272
     5
273
     5
274
     3
276
     2
277
     5
284
     3
285
     3
286
     3
289
     0
340
55
1001
ACAD_DSTYLE_DIMBREAK
1070
   391
1040
0.125
1001
ACAD_DSTYLE_DIMJAG
1070
   388
1040
1.5
1001
ACAD_DSTYLE_DIMTALN
1070
   392
1070
     0
  0
ENDTAB
  0
TABLE
  2
BLOCK_RECORD
  5
1
330
0
100
AcDbSymbolTable
 70
    42
  0
BLOCK_RECORD
  5
6C
102
{ACAD_XDICTIONARY
360
1344
102
}
330
1
100
AcDbSymbolTableRecord
100
AcDbBlockTableRecord
  2
*Model_Space
340
6F
 70
     0
280
     1
281
     0
  0
BLOCK_RECORD
  5
68
330
1
100
AcDbSymbolTableRecord
100
AcDbBlockTableRecord
  2
*Paper_Space
340
6B
 70
     0
280
     1
281
     0
  0
BLOCK_RECORD
  5
70
330
1
100
AcDbSymbolTableRecord
100
AcDbBlockTableRecord
  2
*Paper_Space0
340
73
 70
     0
280
     1
281
     0
  0
BLOCK_RECORD
  5
10796
330
1
100
AcDbSymbolTableRecord
100
AcDbBlockTableRecord
  2
B027074-M
340
0
102
{BLKREFS
331
10B40
331
10B41
102
}
 70
     0
280
     1
281
     0
  0
BLOCK_RECORD
  5
1079A
102
{ACAD_XDICTIONARY
360
107B8
102
}
330
1
100
AcDbSymbolTableRecord
100
AcDbBlockTableRecord
  2
gt100
340
0
102
{BLKREFS
331
11B9F
331
11C1B
331
11C3F
331
11AB0
331
11891
331
118D6
331
11DFC
331
11E16
331
12056
331
120B1
102
}
 70
     1
280
     1
281
     0
  0
BLOCK_RECORD
  5
11086
102
{ACAD_XDICTIONARY
360
11087
102
}
330
1
100
AcDbSymbolTableRecord
100
AcDbBlockTableRecord
  2
B601TCG010
340
0
102
{BLKREFS
331
11B71
331
11BF0
331
117BE
331
117BF
331
11EBB
331
11EBC
331
119DE
331
119DF
331
11D58
331
11D59
102
}
 70
     0
280
     1
281
     0
  0
BLOCK_RECORD
  5
117CB
330
1
100
AcDbSymbolTableRecord
100
AcDbBlockTableRecord
  2
*D4
340
0
 70
     0
280
     1
281
     0
  0
BLOCK_RECORD
  5
117D7
330
1
100
AcDbSymbolTableRecord
100
AcDbBlockTableRecord
  2
*D5
340
0
 70
     0
280
     1
281
     0
  0
BLOCK_RECORD
  5
117E2
330
1
100
AcDbSymbolTableRecord
100
AcDbBlockTableRecord
  2
*D6
340
0
 70
     0
280
     1
281
     0
  0
BLOCK_RECORD
  5
117ED
330
1
100
AcDbSymbolTableRecord
100
AcDbBlockTableRecord
  2
*D7
340
0
 70
     0
280
     1
281
     0
  0
BLOCK_RECORD
  5
117F8
330
1
100
AcDbSymbolTableRecord
100
AcDbBlockTableRecord
  2
*D8
340
0
 70
     0
280
     1
281
     0
  0
BLOCK_RECORD
  5
11804
330
1
100
AcDbSymbolTableRecord
100
AcDbBlockTableRecord
  2
*D9
340
0
 70
     0
280
     1
281
     0
  0
BLOCK_RECORD
  5
11810
330
1
100
AcDbSymbolTableRecord
100
AcDbBlockTableRecord
  2
*D10
340
0
 70
     0
280
     1
281
     0
  0
BLOCK_RECORD
  5
1181B
330
1
100
AcDbSymbolTableRecord
100
AcDbBlockTableRecord
  2
*D11
340
0
 70
     0
280
     1
281
     0
  0
BLOCK_RECORD
  5
11826
330
1
100
AcDbSymbolTableRecord
100
AcDbBlockTableRecord
  2
*D12
340
0
 70
     0
280
     1
281
     0
  0
BLOCK_RECORD
  5
11831
330
1
100
AcDbSymbolTableRecord
100
AcDbBlockTableRecord
  2
*D13
340
0
 70
     0
280
     1
281
     0
  0
BLOCK_RECORD
  5
119EA
330
1
100
AcDbSymbolTableRecord
100
AcDbBlockTableRecord
  2
*D14
340
0
 70
     0
280
     1
281
     0
  0
BLOCK_RECORD
  5
119F6
330
1
100
AcDbSymbolTableRecord
100
AcDbBlockTableRecord
  2
*D15
340
0
 70
     0
280
     1
281
     0
  0
BLOCK_RECORD
  5
11A01
330
1
100
AcDbSymbolTableRecord
100
AcDbBlockTableRecord
  2
*D16
340
0
 70
     0
280
     1
281
     0
  0
BLOCK_RECORD
  5
11A0C
330
1
100
AcDbSymbolTableRecord
100
AcDbBlockTableRecord
  2
*D17
340
0
 70
     0
280
     1
281
     0
  0
BLOCK_RECORD
  5
11A17
330
1
100
AcDbSymbolTableRecord
100
AcDbBlockTableRecord
  2
*D18
340
0
 70
     0
280
     1
281
     0
  0
BLOCK_RECORD
  5
11A22
330
1
100
AcDbSymbolTableRecord
100
AcDbBlockTableRecord
  2
*D19
340
0
 70
     0
280
     1
281
     0
  0
BLOCK_RECORD
  5
11A2D
330
1
100
AcDbSymbolTableRecord
100
AcDbBlockTableRecord
  2
*D20
340
0
 70
     0
280
     1
281
     0
  0
BLOCK_RECORD
  5
11A39
330
1
100
AcDbSymbolTableRecord
100
AcDbBlockTableRecord
  2
*D21
340
0
 70
     0
280
     1
281
     0
  0
BLOCK_RECORD
  5
11A44
330
1
100
AcDbSymbolTableRecord
100
AcDbBlockTableRecord
  2
*D22
340
0
 70
     0
280
     1
281
     0
  0
BLOCK_RECORD
  5
11A50
330
1
100
AcDbSymbolTableRecord
100
AcDbBlockTableRecord
  2
*D23
340
0
 70
     0
280
     1
281
     0
  0
BLOCK_RECORD
  5
11B77
330
1
100
AcDbSymbolTableRecord
100
AcDbBlockTableRecord
  2
*D24
340
0
 70
     0
280
     1
281
     0
  0
BLOCK_RECORD
  5
11B82
330
1
100
AcDbSymbolTableRecord
100
AcDbBlockTableRecord
  2
*D25
340
0
 70
     0
280
     1
281
     0
  0
BLOCK_RECORD
  5
11BF2
330
1
100
AcDbSymbolTableRecord
100
AcDbBlockTableRecord
  2
*D26
340
0
 70
     0
280
     1
281
     0
  0
BLOCK_RECORD
  5
11BFD
330
1
100
AcDbSymbolTableRecord
100
AcDbBlockTableRecord
  2
*D27
340
0
 70
     0
280
     1
281
     0
  0
BLOCK_RECORD
  5
11D5E
330
1
100
AcDbSymbolTableRecord
100
AcDbBlockTableRecord
  2
*D28
340
0
 70
     0
280
     1
281
     0
  0
BLOCK_RECORD
  5
11D69
330
1
100
AcDbSymbolTableRecord
100
AcDbBlockTableRecord
  2
*D29
340
0
 70
     0
280
     1
281
     0
  0
BLOCK_RECORD
  5
11D74
330
1
100
AcDbSymbolTableRecord
100
AcDbBlockTableRecord
  2
*D30
340
0
 70
     0
280
     1
281
     0
  0
BLOCK_RECORD
  5
11D80
330
1
100
AcDbSymbolTableRecord
100
AcDbBlockTableRecord
  2
*D31
340
0
 70
     0
280
     1
281
     0
  0
BLOCK_RECORD
  5
11D8B
330
1
100
AcDbSymbolTableRecord
100
AcDbBlockTableRecord
  2
*D32
340
0
 70
     0
280
     1
281
     0
  0
BLOCK_RECORD
  5
11D96
330
1
100
AcDbSymbolTableRecord
100
AcDbBlockTableRecord
  2
*D33
340
0
 70
     0
280
     1
281
     0
  0
BLOCK_RECORD
  5
11DA1
330
1
100
AcDbSymbolTableRecord
100
AcDbBlockTableRecord
  2
*D34
340
0
 70
     0
280
     1
281
     0
  0
BLOCK_RECORD
  5
11DAD
330
1
100
AcDbSymbolTableRecord
100
AcDbBlockTableRecord
  2
*D35
340
0
 70
     0
280
     1
281
     0
  0
BLOCK_RECORD
  5
11EC7
330
1
100
AcDbSymbolTableRecord
100
AcDbBlockTableRecord
  2
*D36
340
0
 70
     0
280
     1
281
     0
  0
BLOCK_RECORD
  5
11ED2
330
1
100
AcDbSymbolTableRecord
100
AcDbBlockTableRecord
  2
*D37
340
0
 70
     0
280
     1
281
     0
  0
BLOCK_RECORD
  5
11EDD
330
1
100
AcDbSymbolTableRecord
100
AcDbBlockTableRecord
  2
*D38
340
0
 70
     0
280
     1
281
     0
  0
BLOCK_RECORD
  5
11EE9
330
1
100
AcDbSymbolTableRecord
100
AcDbBlockTableRecord
  2
*D39
340
0
 70
     0
280
     1
281
     0
  0
BLOCK_RECORD
  5
124E1
102
{ACAD_XDICTIONARY
360
128D6
102
}
330
1
100
AcDbSymbolTableRecord
100
AcDbBlockTableRecord
  2
Kawneer Logo English
340
0
102
{BLKREFS
331
12741
102
}
 70
     1
280
     1
281
     0
1001
AcDbDynamicBlockGUID
1000
{961BA00A-2B11-7842-A4F8-73ECA80B6B1B}
  0
ENDTAB
  0
ENDSEC
  0
SECTION
  2
BLOCKS
  0
BLOCK
  5
6D
330
6C
100
AcDbEntity
  8
0
100
AcDbBlockBegin
  2
*Model_Space
 70
     0
 10
0.0
 20
0.0
 30
0.0
  3
*Model_Space
  1

  0
ENDBLK
  5
6E
330
6C
100
AcDbEntity
  8
0
100
AcDbBlockEnd
  0
BLOCK
  5
69
330
68
100
AcDbEntity
 67
     1
  8
0
100
AcDbBlockBegin
  2
*Paper_Space
 70
     0
 10
0.0
 20
0.0
 30
0.0
  3
*Paper_Space
  1

  0
ENDBLK
  5
6A
330
68
100
AcDbEntity
 67
     1
  8
0
100
AcDbBlockEnd
  0
BLOCK
  5
71
330
70
100
AcDbEntity
 67
     1
  8
0
100
AcDbBlockBegin
  2
*Paper_Space0
 70
     0
 10
0.0
 20
0.0
 30
0.0
  3
*Paper_Space0
  1

  0
ENDBLK
  5
72
330
70
100
AcDbEntity
 67
     1
  8
0
100
AcDbBlockEnd
  0
BLOCK
  5
10797
330
10796
100
AcDbEntity
  8
0
100
AcDbBlockBegin
  2
B027074-M
 70
     0
 10
0.0
 20
0.0
 30
0.0
  3
B027074-M
  1

  0
LWPOLYLINE
  5
10798
330
10796
100
AcDbEntity
  8
0
100
AcDbPolyline
 90
       31
 70
     1
 43
0.0
 10
0.0615385958537953
 20
0.1444979718355525
 10
0.0347220693148596
 20
0.1493722724335179
 10
0.0688521934359927
 20
0.2566068701152685
 10
0.1297988440960616
 20
0.2614811689939573
 10
0.205353714454843
 20
0.2585000000000051
 10
0.1952631728965243
 20
0.2895095426212411
 42
0.1257100272134179
 10
-0.0367282291255313
 20
0.3412518702148949
 42
-0.2260837189018228
 10
-0.190313789557137
 20
0.3909697288589945
 10
-0.2858690992168286
 20
0.5019103470193476
 42
0.6449762263124317
 10
-0.3118033912350138
 20
0.4901690045456872
 10
-0.3102236542069603
 20
0.3609320689163035
 42
0.1518691569180708
 10
-0.2938708776106291
 20
0.3164969145670437
 10
-0.2553676893153789
 20
0.256571135298567
 42
-0.0293454671788447
 10
-0.2379728001124799
 20
0.2046884921059461
 10
-0.2207425105289544
 20
0.0828944822689027
 42
-0.6538117075652882
 10
-0.2409833214318129
 20
0.0759077453035388
 10
-0.285075068654139
 20
0.2411566627934628
 42
0.8886355728344963
 10
-0.3102236542069601
 20
0.2390952318940735
 10
-0.3102236542069602
 20
0.1048496115014148
 42
0.0642046489364144
 10
-0.2677911922975344
 20
-0.0837666452058693
 42
0.6896355001773956
 10
-0.1651824619094271
 20
-0.0837666452058707
 42
0.0703560868358924
 10
-0.1239500000000007
 20
0.1048496115014146
 10
-0.1239500000000006
 20
0.2005524218350488
 10
-0.0506032420234126
 20
0.2005524218350488
 10
-0.0286624472059418
 20
0.1469351221345353
 10
-0.0676683051194189
 20
0.1420608232558463
 10
-0.0335381789274067
 20
0.1055035739289353
 10
-0.0652304392586864
 20
0.0835692246766441
 10
-0.0042837865277385
 20
0.029951926695407
 10
0.0517871324108659
 20
0.0957549744522811
 10
0.0274084717326622
 20
0.1055035739289353
  0
ENDBLK
  5
10799
330
10796
100
AcDbEntity
  8
0
100
AcDbBlockEnd
  0
BLOCK
  5
107BA
330
1079A
100
AcDbEntity
  8
0
100
AcDbBlockBegin
  2
gt100
 70
     0
 10
0.0
 20
0.0
 30
0.0
  3
gt100
  1

  0
LINE
  5
10B38
330
1079A
100
AcDbEntity
  8
0
100
AcDbLine
 10
-0.1165000000000163
 20
-0.2909750000000013
 30
0.0
 11
2.258499999999997
 21
-0.2909750000000013
 31
0.0
  0
LINE
  5
10B39
330
1079A
100
AcDbEntity
  8
0
100
AcDbLine
 10
-0.1165000000000163
 20
-0.5409750000000014
 30
0.0
 11
2.258499999999997
 21
-0.5409750000000014
 31
0.0
  0
LINE
  5
10B3A
330
1079A
100
AcDbEntity
  8
0
100
AcDbLine
 10
-0.1165000000000163
 20
-1.040975000000001
 30
0.0
 11
2.258499999999997
 21
-1.040975000000001
 31
0.0
  0
LINE
  5
10B3B
330
1079A
100
AcDbEntity
  8
0
100
AcDbLine
 10
-0.1165000000000163
 20
-1.290975000000001
 30
0.0
 11
2.258499999999997
 21
-1.290975000000001
 31
0.0
  0
LINE
  5
10B3C
330
1079A
100
AcDbEntity
  8
0
100
AcDbLine
 10
0.2584999999999979
 20
0.2263287144548425
 30
0.0
 11
2.258499999999997
 21
0.2263287144548407
 31
0.0
  0
LINE
  5
10B3D
330
1079A
100
AcDbEntity
  8
0
100
AcDbLine
 10
0.2584999999999979
 20
-1.808278714454843
 30
0.0
 11
2.258499999999997
 21
-1.808278714454843
 31
0.0
  0
LINE
  5
10B3E
330
1079A
100
AcDbEntity
  8
0
100
AcDbLine
 10
-0.1165000000000163
 20
-0.2909750000000013
 30
0.0
 11
-0.1165000000000163
 21
-0.5409750000000014
 31
0.0
  0
LINE
  5
10B3F
330
1079A
100
AcDbEntity
  8
0
100
AcDbLine
 10
-0.1165000000000163
 20
-1.040975000000001
 30
0.0
 11
-0.1165000000000163
 21
-1.290975000000001
 31
0.0
  0
INSERT
  5
10B40
330
1079A
100
AcDbEntity
  8
0
100
AcDbBlockReference
  2
B027074-M
 10
-0.0000000000000142
 20
-1.602925
 30
0.0
 50
270.0
  0
INSERT
  5
10B41
330
1079A
100
AcDbEntity
  8
0
100
AcDbBlockReference
  2
B027074-M
 10
-0.0000000000000142
 20
0.020975
 30
0.0
 41
-1.0
 50
270.0
  0
LINE
  5
10B42
330
1079A
100
AcDbEntity
  8
0
100
AcDbLine
 10
0.2897499999999979
 20
-0.5722249999999996
 30
0.0
 11
0.2897499999999979
 21
-1.009725000000001
 31
0.0
  0
LINE
  5
10B43
330
1079A
100
AcDbEntity
  8
0
100
AcDbLine
 10
-0.0227500000000021
 20
-0.6164191738241592
 30
0.0
 11
-0.0227500000000163
 21
-0.9655308261758417
 31
0.0
  0
ARC
  5
10B44
330
1079A
100
AcDbEntity
  8
0
100
AcDbCircle
 10
0.008499999999998
 20
-0.6164191738241592
 30
0.0
 40
0.03125
100
AcDbArc
 50
135.0000000000003
 51
180.0
  0
LINE
  5
10B45
330
1079A
100
AcDbEntity
  8
0
100
AcDbLine
 10
0.008499999999998
 20
-0.6164191738241592
 30
0.0
 11
0.0084999999999837
 21
-0.9655308261758417
 31
0.0
  0
ARC
  5
10B46
330
1079A
100
AcDbEntity
  8
0
100
AcDbCircle
 10
0.2584999999999979
 20
-1.009725000000001
 30
0.0
 40
0.03125
100
AcDbArc
 50
270.0
 51
0.0
  0
LINE
  5
10B47
330
1079A
100
AcDbEntity
  8
0
100
AcDbLine
 10
0.2584999999999979
 20
-0.5722249999999996
 30
0.0
 11
0.2584999999999837
 21
-1.009725000000001
 31
0.0
  0
ARC
  5
10B48
330
1079A
100
AcDbEntity
  8
0
100
AcDbCircle
 10
0.2584999999999979
 20
-0.5722249999999996
 30
0.0
 40
0.03125
100
AcDbArc
 50
0.0
 51
90.0
  0
LINE
  5
10B49
330
1079A
100
AcDbEntity
  8
0
100
AcDbLine
 10
0.0305970869120671
 20
-0.5501279130879216
 30
0.0
 11
-0.0135970869120854
 21
-0.5943220869120794
 31
0.0
  0
ARC
  5
10B4A
330
1079A
100
AcDbEntity
  8
0
100
AcDbCircle
 10
0.0526941738241504
 20
-0.5722249999999996
 30
0.0
 40
0.03125
100
AcDbArc
 50
90.0
 51
135.0000000000003
  0
LINE
  5
10B4B
330
1079A
100
AcDbEntity
  8
0
100
AcDbLine
 10
0.0526941738241504
 20
-0.5722249999999996
 30
0.0
 11
0.008499999999998
 21
-0.6164191738241592
 31
0.0
  0
ARC
  5
10B4C
330
1079A
100
AcDbEntity
  8
0
100
AcDbCircle
 10
0.008499999999998
 20
-0.9655308261758417
 30
0.0
 40
0.03125
100
AcDbArc
 50
180.0
 51
224.9999999999996
  0
LINE
  5
10B4D
330
1079A
100
AcDbEntity
  8
0
100
AcDbLine
 10
0.0305970869120671
 20
-1.031822086912081
 30
0.0
 11
-0.0135970869120854
 21
-0.9876279130879215
 31
0.0
  0
ARC
  5
10B4E
330
1079A
100
AcDbEntity
  8
0
100
AcDbCircle
 10
0.0526941738241504
 20
-1.009725000000001
 30
0.0
 40
0.03125
100
AcDbArc
 50
224.9999999999996
 51
270.0
  0
LINE
  5
10B4F
330
1079A
100
AcDbEntity
  8
0
100
AcDbLine
 10
0.0526941738241504
 20
-1.009725000000001
 30
0.0
 11
0.008499999999998
 21
-0.9655308261758417
 31
0.0
  0
LINE
  5
10B50
330
1079A
100
AcDbEntity
  8
0
100
AcDbLine
 10
0.2584999999999979
 20
-0.5409749999999996
 30
0.0
 11
0.0526941738241504
 21
-0.5409749999999996
 31
0.0
  0
LINE
  5
10B51
330
1079A
100
AcDbEntity
  8
0
100
AcDbLine
 10
0.2584999999999979
 20
-0.5722249999999996
 30
0.0
 11
0.0526941738241504
 21
-0.5722249999999996
 31
0.0
  0
LINE
  5
10B52
330
1079A
100
AcDbEntity
  8
0
100
AcDbLine
 10
0.2584999999999979
 20
-1.040975000000001
 30
0.0
 11
0.0526941738241504
 21
-1.040975000000001
 31
0.0
  0
LINE
  5
10B53
330
1079A
100
AcDbEntity
  8
0
100
AcDbLine
 10
0.2584999999999837
 20
-1.009725000000001
 30
0.0
 11
0.0526941738241504
 21
-1.009725000000001
 31
0.0
  0
ARC
  5
10B54
330
1079A
100
AcDbEntity
  8
0
100
AcDbCircle
 10
-1.100875000000016
 20
-0.7909749999999996
 30
0.0
 40
1.015625000000002
100
AcDbArc
 50
345.7499673021963
 51
14.25003269780335
  0
ENDBLK
  5
107BB
330
1079A
100
AcDbEntity
  8
0
100
AcDbBlockEnd
  0
BLOCK
  5
11089
330
11086
100
AcDbEntity
  8
0
100
AcDbBlockBegin
  2
B601TCG010
 70
     0
 10
0.0
 20
0.0
 30
0.0
  3
B601TCG010
  1

  0
ARC
  5
1108A
330
11086
100
AcDbEntity
  8
0
100
AcDbCircle
 10
0.5080382495694274
 20
0.0785074999999447
 30
0.0
 40
0.181249999999983
100
AcDbArc
 50
136.3971810272914
 51
223.6028189727089
  0
LINE
  5
1108B
330
11086
100
AcDbEntity
  8
0
100
AcDbLine
 10
0.0817882495694527
 20
0.2035074999999429
 30
0.0
 11
0.0817882495694527
 21
-0.0464925000000553
 31
0.0
  0
LINE
  5
1108C
330
11086
100
AcDbEntity
  8
0
100
AcDbLine
 10
0.0817882495694491
 20
0.2035074999999447
 30
0.0
 11
0.0817882495694491
 21
-0.0464925000000536
 31
0.0
  0
ARC
  5
1108D
330
11086
100
AcDbEntity
  8
0
100
AcDbCircle
 10
0.5080382495694274
 20
0.0785074999999234
 30
0.0
 40
0.181249999999983
100
AcDbArc
 50
136.3971810272914
 51
223.6028189727089
  0
LWPOLYLINE
  5
1108E
330
11086
100
AcDbEntity
  8
0
100
AcDbPolyline
 90
       23
 70
     1
 43
0.0
 10
-0.2562117504306727
 20
-1.48199500000005
 42
-0.4142135623730966
 10
-0.1762117504306744
 20
-1.401995000000048
 10
0.2867882495694509
 20
-1.401995000000048
 10
0.2867882495694403
 20
-1.016995000000036
 42
0.4142135623730951
 10
0.1767882495694479
 20
-0.9069950000000437
 10
0.1767882495694479
 20
-0.5319950000000438
 42
0.4142135623730926
 10
0.2867882495694509
 20
-0.4219950000000479
 10
0.2867882495694509
 20
-0.2774975000000426
 42
0.4142135623730951
 10
0.2667882495694513
 20
-0.257497500000043
 10
0.0964946678574812
 20
-0.2574975000000412
 42
0.338155751155318
 10
0.0772004787524132
 20
-0.2722311666667094
 42
-0.3381557511553106
 10
-0.0482117504305464
 20
-0.3680000000000438
 10
-0.6743409464974093
 20
-0.3680000000000474
 42
0.1990202627215852
 10
-0.6884889519633433
 20
-0.3738637366558661
 10
-0.749734724779831
 20
-0.4351603825569788
 42
-0.1990202627215858
 10
-0.8240117534759754
 20
-0.4659450000000467
 10
-0.8982117504305584
 20
-0.4659450000000467
 42
0.4142135623731471
 10
-0.918211750430558
 20
-0.4859450000000463
 10
-0.918211750430558
 20
-0.7039950000000621
 10
-0.9332117504305639
 20
-0.7189950000000645
 10
-0.9182117504305544
 20
-0.7339950000000686
 10
-0.9182117504305544
 20
-1.669995000000034
 10
-0.2562117504306727
 20
-1.669995000000031
  0
LWPOLYLINE
  5
1108F
330
11086
100
AcDbEntity
  8
0
100
AcDbPolyline
 90
       49
 70
     1
 43
0.0
 10
0.0017882495694543
 20
-0.0564925000000534
 10
0.0117882495694453
 20
-0.0464925000000536
 10
0.0972882495694485
 20
-0.0464925000000536
 42
-0.9999999999999998
 10
0.0972882495694485
 20
-0.0774925000000559
 10
0.0967882495694497
 20
-0.0774925000000559
 42
0.4142135623730951
 10
0.0817882495694491
 20
-0.0924925000000565
 10
0.0817882495694527
 20
-0.1724925000000566
 42
0.4142135623730605
 10
0.0967882495694532
 20
-0.1874925000000553
 10
0.3117882495694495
 20
-0.1874925000000536
 42
0.4142135623730603
 10
0.3267882495694501
 20
-0.1724925000000548
 10
0.3267882495694465
 20
-0.0924925000000547
 42
0.4142135623730951
 10
0.3117882495694459
 20
-0.0774925000000542
 10
0.3112882495694471
 20
-0.0774925000000542
 42
-0.9999999999999998
 10
0.3112882495694471
 20
-0.0464925000000518
 10
0.3767882495694472
 20
-0.0464925000000553
 10
0.3767882495694366
 20
-0.7094950000000422
 10
0.3667882495694386
 20
-0.719495000000042
 10
0.3767882495694366
 20
-0.7294950000000382
 10
0.3767882495694295
 20
-1.381995000000046
 42
0.4142135623731471
 10
0.396788249569429
 20
-1.401995000000046
 10
0.7287882495694405
 20
-1.401995000000046
 42
-0.9999999999999998
 10
0.7287882495694405
 20
-1.481995000000048
 10
-0.1762117504306744
 20
-1.48199500000005
 10
-0.1762117504306744
 20
-1.669995000000034
 10
0.3367882495694445
 20
-1.669995000000047
 42
-0.9999999999999998
 10
0.3367882495694445
 20
-1.749995000000041
 10
-0.9982117504305563
 20
-1.749995000000047
 10
-0.9982117504305563
 20
-0.3929753030303518
 10
-0.8957117504305571
 20
-0.3569450000000502
 10
-0.8957117504305571
 20
-0.3859450000000466
 10
-0.8240117504305572
 20
-0.3859450000000484
 42
0.1989123673796514
 10
-0.8063340809008892
 20
-0.3786226695297108
 10
-0.7397117504305584
 20
-0.3119450000000485
 10
-0.7397117504305584
 20
-0.2699950000000486
 42
0.3541185725306597
 10
-0.7555535166141994
 20
-0.250432047985373
 10
-0.8577117504305533
 20
-0.227995000000047
 10
-0.8957117504305571
 20
-0.227995000000047
 10
-0.8957117504305571
 20
-0.2569950000000469
 10
-0.9077117504305576
 20
-0.2569950000000469
 42
-0.4142135623731471
 10
-0.9277117504305536
 20
-0.2369950000000474
 10
-0.9277117504305536
 20
-0.2079950000000474
 42
-0.4142135623731211
 10
-0.9077117504305576
 20
-0.1879950000000496
 10
-0.705716750430554
 20
-0.1879950000000479
 42
-0.4142135623730951
 10
-0.6677117504305557
 20
-0.2260000000000462
 10
-0.6897117504305541
 20
-0.2260000000000462
 10
-0.6897117504305541
 20
-0.2630000000000452
 42
0.4142135623731159
 10
-0.6647117504305556
 20
-0.2880000000000455
 10
-0.0482117504305464
 20
-0.2880000000000455
 42
0.41421356237309
 10
0.0017882495694543
 20
-0.2380000000000448
  0
LWPOLYLINE
  5
11090
330
11086
100
AcDbEntity
  8
0
100
AcDbPolyline
 90
       30
 70
     1
 43
0.0
 10
-0.918211750430558
 20
1.485954999999948
 42
0.4142135623730951
 10
-0.8982117504305584
 20
1.465954999999948
 10
-0.8240117534759789
 20
1.465954999999946
 42
-0.1990202627215747
 10
-0.7497347247798381
 20
1.435170382556884
 10
-0.6884889519633397
 20
1.373873736655768
 42
0.1990202627215749
 10
-0.6743409464974093
 20
1.368009999999947
 10
-0.0482117504305464
 20
1.368009999999922
 42
-0.3362202179247352
 10
0.076959483865938
 20
1.273112166666584
 42
0.3362202179247291
 10
0.0962165968346298
 20
1.258512499999917
 10
0.2667882495694442
 20
1.258512499999917
 42
0.4142135623730951
 10
0.2867882495694438
 20
1.278512499999917
 10
0.2867882495694403
 20
1.422004999999949
 42
0.4142135623730962
 10
0.1767882495694479
 20
1.532004999999942
 10
0.1767882495694479
 20
1.907004999999945
 42
0.4142135623730961
 10
0.2867882495694403
 20
2.017004999999937
 10
0.2867882495694403
 20
2.972504999999942
 42
0.5142593202659559
 10
0.1767882495694479
 20
3.032504999999934
 10
0.1767882495694479
 20
3.407504999999938
 42
0.4142135623730961
 10
0.2867882495694403
 20
3.51750499999993
 10
0.2867882495694403
 20
3.902004999999957
 10
-0.1762117504306708
 20
3.902004999999957
 42
-0.4142135623730951
 10
-0.2562117504306691
 20
3.982004999999955
 10
-0.2562117504306656
 20
4.170004999999951
 10
-0.918211750430558
 20
4.170004999999951
 10
-0.9182117504305544
 20
3.235004999999937
 10
-0.9332117504305585
 20
3.220004999999936
 10
-0.918211750430558
 20
3.205004999999941
 10
-0.918211750430558
 20
1.734004999999943
 10
-0.9332117504305639
 20
1.719004999999936
 10
-0.9182117504305615
 20
1.704004999999939
  0
LWPOLYLINE
  5
11091
330
11086
100
AcDbEntity
  8
0
100
AcDbPolyline
 90
       95
 70
     1
 43
0.0
 10
-0.7555535166141994
 20
1.250442047985273
 42
0.3541185725306746
 10
-0.7397117504305584
 20
1.27000499999995
 10
-0.7397117504305584
 20
1.31195499999995
 10
-0.8063340809008892
 20
1.37863266952961
 42
0.1989123673796608
 10
-0.8240117504305572
 20
1.385954999999948
 10
-0.8957117504305571
 20
1.385954999999948
 10
-0.8957117504305571
 20
1.356954999999952
 10
-0.9982117504305563
 20
1.392985303030253
 10
-0.9982117504305563
 20
4.25000499999995
 10
0.3367882495694374
 20
4.25000499999995
 42
-0.9999999999999998
 10
0.3367882495694374
 20
4.170004999999937
 10
-0.1762117504306673
 20
4.170004999999951
 10
-0.1762117504306673
 20
3.982004999999955
 10
0.7287882495694476
 20
3.982004999999955
 42
-0.9999999999999998
 10
0.7287882495694476
 20
3.902004999999957
 10
0.396788249569429
 20
3.902004999999957
 42
0.4142135623731471
 10
0.3767882495694295
 20
3.882004999999961
 10
0.3767882495694366
 20
1.729504999999945
 10
0.3667882495694386
 20
1.719504999999947
 10
0.3767882495694401
 20
1.709504999999949
 10
0.3767882495694472
 20
1.047507499999954
 10
0.3767882495694472
 20
1.047507499999954
 10
0.3112882495694471
 20
1.047507499999951
 42
-0.9999999999999998
 10
0.3112882495694471
 20
1.078507499999953
 10
0.3117882495694424
 20
1.078507499999953
 42
0.4142135623730951
 10
0.326788249569443
 20
1.093507499999954
 10
0.3267882495694465
 20
1.173507499999952
 42
0.4142135623730777
 10
0.3117882495694459
 20
1.188507499999952
 10
0.0967882495694461
 20
1.188507499999952
 42
0.4142135623730779
 10
0.0817882495694455
 20
1.173507499999952
 10
0.0817882495694455
 20
1.093507499999954
 42
0.4142135623730951
 10
0.0967882495694461
 20
1.078507499999953
 10
0.0972882495694485
 20
1.078507499999953
 42
-0.9999999999999998
 10
0.0972882495694503
 20
1.047507499999954
 10
0.0967882495694497
 20
1.047507499999954
 42
0.4142135623730951
 10
0.0817882495694491
 20
1.032507499999954
 10
0.0817882495694527
 20
0.812507499999957
 42
0.4142135623730774
 10
0.0967882495694497
 20
0.7975074999999566
 10
0.0972882495694485
 20
0.7975074999999566
 42
-0.9999999999999998
 10
0.0972882495694485
 20
0.7665074999999542
 10
0.0967882495694461
 20
0.7665074999999542
 42
0.4142135623730951
 10
0.0817882495694455
 20
0.7515074999999536
 10
0.0817882495694491
 20
0.6715074999999553
 42
0.4142135623730779
 10
0.0967882495694497
 20
0.6565074999999548
 10
0.3117882495694459
 20
0.6565074999999548
 42
0.4142135623730778
 10
0.3267882495694465
 20
0.6715074999999553
 10
0.326788249569443
 20
0.7515074999999536
 42
0.4142135623730951
 10
0.3117882495694424
 20
0.7665074999999542
 10
0.3112882495694471
 20
0.7665074999999542
 42
-0.9999999999999998
 10
0.3112882495694471
 20
0.7975074999999566
 10
0.3767882495694472
 20
0.7975074999999548
 10
0.3767882495694472
 20
0.600100421435152
 10
0.2948075845206226
 20
0.5527688624008649
 42
-0.3865446749096752
 10
0.2816628859538461
 20
0.5556270577302565
 42
3.127286275187389
 10
0.2816628859538319
 20
0.4453879422696341
 42
-0.3865446749097457
 10
0.2948075845206226
 20
0.448246137599015
 10
0.3767882495694472
 20
0.4009145785647421
 10
0.3767882495694472
 20
0.2035074999999447
 10
0.3112882495694471
 20
0.2035074999999447
 42
-0.9999999999999998
 10
0.3112882495694471
 20
0.234507499999947
 10
0.3117882495694459
 20
0.234507499999947
 42
0.4142135623730951
 10
0.3267882495694465
 20
0.2495074999999476
 10
0.3267882495694501
 20
0.3295074999999459
 42
0.414213562373069
 10
0.3117882495694495
 20
0.3445074999999464
 10
0.0967882495694497
 20
0.3445074999999447
 42
0.4142135623730779
 10
0.0817882495694491
 20
0.3295074999999459
 10
0.0817882495694491
 20
0.2495074999999458
 42
0.4142135623730951
 10
0.0967882495694497
 20
0.2345074999999452
 10
0.0972882495694485
 20
0.2345074999999452
 42
-0.9999999999999998
 10
0.0972882495694485
 20
0.2035074999999447
 10
0.0117882495694488
 20
0.2035074999999429
 10
0.0017882495694472
 20
0.2135074999999427
 10
0.0017882495694579
 20
0.4905074999999579
 10
0.0117882495694559
 20
0.500507499999956
 10
0.0017882495694579
 20
0.5105074999999575
 10
0.001788249569465
 20
0.7875074999999692
 10
0.0117882495694488
 20
0.7975074999999566
 10
0.001788249569449
 20
0.8075074999999563
 10
0.001788249569465
 20
1.037507499999965
 10
0.0117882495694488
 20
1.047507499999952
 10
0.0017882495694472
 20
1.057507499999952
 10
0.0017882495694543
 20
1.238009999999944
 42
0.4142135623730898
 10
-0.0482117504305464
 20
1.288009999999949
 10
-0.6647117504305556
 20
1.288009999999949
 42
0.4142135623730951
 10
-0.6897117504305541
 20
1.26300999999995
 10
-0.6897117504305541
 20
1.226009999999948
 10
-0.6677117504305557
 20
1.226009999999948
 42
-0.4142135623730951
 10
-0.705716750430554
 20
1.188004999999949
 10
-0.9077117504305576
 20
1.188004999999949
 42
-0.414213562373095
 10
-0.92771175043055
 20
1.208004999999949
 10
-0.9277117504305536
 20
1.237004999999949
 42
-0.4142135623730951
 10
-0.9077117504305576
 20
1.257004999999952
 10
-0.8957117504305571
 20
1.257004999999948
 10
-0.8957117504305571
 20
1.228004999999948
 10
-0.8577117504305533
 20
1.228004999999948
  0
ENDBLK
  5
11092
330
11086
100
AcDbEntity
  8
0
100
AcDbBlockEnd
  0
BLOCK
  5
117CC
330
117CB
100
AcDbEntity
  8
0
100
AcDbBlockBegin
  2
*D4
 70
     1
 10
0.0
 20
0.0
 30
0.0
  3
*D4
  1

  0
LINE
  5
11F5B
330
117CB
100
AcDbEntity
  8
DIME
 62
     0
440
 16777216
370
    -2
100
AcDbLine
 10
14.85508384978379
 20
58.11787880671403
 30
0.0
 11
14.85508384978379
 21
60.08755404479902
 31
0.0
  0
LINE
  5
11F5C
330
117CB
100
AcDbEntity
  8
DIME
 62
     0
440
 16777216
370
    -2
100
AcDbLine
 10
20.85517300894252
 20
58.11787880671403
 30
0.0
 11
20.85517300894252
 21
60.08755404479902
 31
0.0
  0
LINE
  5
11F5D
330
117CB
100
AcDbEntity
  8
DIME
 62
     0
440
 16777216
370
    -2
100
AcDbLine
 10
15.10508384978379
 20
59.90755404479902
 30
0.0
 11
20.60517300894252
 21
59.90755404479902
 31
0.0
  0
SOLID
  5
11F5E
330
117CB
100
AcDbEntity
  8
DIME
 62
     0
440
 16777216
100
AcDbTrace
 10
15.10508384978379
 20
59.94922071146569
 30
0.0
 11
15.10508384978379
 21
59.86588737813236
 31
0.0
 12
14.85508384978379
 22
59.90755404479902
 32
0.0
 13
14.85508384978379
 23
59.90755404479902
 33
0.0
  0
SOLID
  5
11F5F
330
117CB
100
AcDbEntity
  8
DIME
 62
     0
440
 16777216
100
AcDbTrace
 10
20.60517300894252
 20
59.94922071146569
 30
0.0
 11
20.60517300894252
 21
59.86588737813236
 31
0.0
 12
20.85517300894252
 22
59.90755404479902
 32
0.0
 13
20.85517300894252
 23
59.90755404479902
 33
0.0
  0
MTEXT
  5
11F60
330
117CB
100
AcDbEntity
  8
DIME
 62
     0
440
 16777216
100
AcDbMText
 10
17.85512842936315
 20
60.13519729172944
 30
0.0
 40
0.25
 41
0.0
 46
0.0
 71
     5
 72
     1
  1
\A1;6"
 73
     1
 44
1.0
  0
POINT
  5
11F61
330
117CB
100
AcDbEntity
  8
DEFPOINTS
 62
     0
440
 16777216
100
AcDbPoint
 10
14.85508384978379
 20
57.74287880671403
 30
0.0
  0
POINT
  5
11F62
330
117CB
100
AcDbEntity
  8
DEFPOINTS
 62
     0
440
 16777216
100
AcDbPoint
 10
20.85517300894252
 20
57.74287880671403
 30
0.0
  0
POINT
  5
11F63
330
117CB
100
AcDbEntity
  8
DEFPOINTS
 62
     0
440
 16777216
100
AcDbPoint
 10
20.85517300894252
 20
59.90755404479902
 30
0.0
  0
ENDBLK
  5
117CD
330
117CB
100
AcDbEntity
  8
0
100
AcDbBlockEnd
  0
BLOCK
  5
117D8
330
117D7
100
AcDbEntity
  8
0
100
AcDbBlockBegin
  2
*D5
 70
     1
 10
0.0
 20
0.0
 30
0.0
  3
*D5
  1

  0
LINE
  5
11F64
330
117D7
100
AcDbEntity
  8
DIME
 62
     0
440
 16777216
370
    -2
100
AcDbLine
 10
22.35517227175779
 20
54.61796796587276
 30
0.0
 11
22.35517227175779
 21
58.83755404479902
 31
0.0
  0
LINE
  5
11F65
330
117D7
100
AcDbEntity
  8
DIME
 62
     0
440
 16777216
370
    -2
100
AcDbLine
 10
22.60517227175779
 20
58.65755404479902
 30
0.0
 11
24.10517227175779
 21
58.65755404479902
 31
0.0
  0
SOLID
  5
11F66
330
117D7
100
AcDbEntity
  8
DIME
 62
     0
440
 16777216
100
AcDbTrace
 10
22.60517227175779
 20
58.69922071146569
 30
0.0
 11
22.60517227175779
 21
58.61588737813236
 31
0.0
 12
22.35517227175779
 22
58.65755404479902
 32
0.0
 13
22.35517227175779
 23
58.65755404479902
 33
0.0
  0
SOLID
  5
11F67
330
117D7
100
AcDbEntity
  8
DIME
 62
     0
440
 16777216
100
AcDbTrace
 10
24.10517227175779
 20
58.69922071146569
 30
0.0
 11
24.10517227175779
 21
58.61588737813236
 31
0.0
 12
24.35517227175779
 22
58.65755404479902
 32
0.0
 13
24.35517227175779
 23
58.65755404479902
 33
0.0
  0
MTEXT
  5
11F68
330
117D7
100
AcDbEntity
  8
DIME
 62
     0
440
 16777216
100
AcDbMText
 10
23.35517227175779
 20
58.88690261232972
 30
0.0
 40
0.25
 41
0.0
 46
0.0
 71
     5
 72
     1
  1
\A1;DLO
 73
     1
 44
1.0
  0
POINT
  5
11F69
330
117D7
100
AcDbEntity
  8
DEFPOINTS
 62
     0
440
 16777216
100
AcDbPoint
 10
22.35517227175779
 20
54.24296796587277
 30
0.0
  0
POINT
  5
11F6A
330
117D7
100
AcDbEntity
  8
DEFPOINTS
 62
     0
440
 16777216
100
AcDbPoint
 10
24.35517227175779
 20
54.24296796587277
 30
0.0
  0
POINT
  5
11F6B
330
117D7
100
AcDbEntity
  8
DEFPOINTS
 62
     0
440
 16777216
100
AcDbPoint
 10
24.35517227175779
 20
58.65755404479902
 30
0.0
  0
ENDBLK
  5
117D9
330
117D7
100
AcDbEntity
  8
0
100
AcDbBlockEnd
  0
BLOCK
  5
117E3
330
117E2
100
AcDbEntity
  8
0
100
AcDbBlockBegin
  2
*D6
 70
     1
 10
0.0
 20
0.0
 30
0.0
  3
*D6
  1

  0
LINE
  5
11F6C
330
117E2
100
AcDbEntity
  8
DIME
 62
     0
440
 16777216
370
    -2
100
AcDbLine
 10
20.85517300894252
 20
58.11787880671403
 30
0.0
 11
20.85517300894252
 21
59.46255404479902
 31
0.0
  0
LINE
  5
11F6D
330
117E2
100
AcDbEntity
  8
DIME
 62
     0
440
 16777216
370
    -2
100
AcDbLine
 10
21.10517300894252
 20
59.28255404479902
 30
0.0
 11
24.10517227175779
 21
59.28255404479902
 31
0.0
  0
SOLID
  5
11F6E
330
117E2
100
AcDbEntity
  8
DIME
 62
     0
440
 16777216
100
AcDbTrace
 10
21.10517300894252
 20
59.32422071146569
 30
0.0
 11
21.10517300894252
 21
59.24088737813236
 31
0.0
 12
20.85517300894252
 22
59.28255404479902
 32
0.0
 13
20.85517300894252
 23
59.28255404479902
 33
0.0
  0
SOLID
  5
11F6F
330
117E2
100
AcDbEntity
  8
DIME
 62
     0
440
 16777216
100
AcDbTrace
 10
24.10517227175779
 20
59.32422071146569
 30
0.0
 11
24.10517227175779
 21
59.24088737813236
 31
0.0
 12
24.35517227175779
 22
59.28255404479902
 32
0.0
 13
24.35517227175779
 23
59.28255404479902
 33
0.0
  0
MTEXT
  5
11F70
330
117E2
100
AcDbEntity
  8
DIME
 62
     0
440
 16777216
100
AcDbMText
 10
22.60517264035016
 20
59.50755404479902
 30
0.0
 40
0.25
 41
0.0
 46
0.0
 71
     5
 72
     1
  1
\A1;F.W.
 73
     1
 44
1.0
  0
POINT
  5
11F71
330
117E2
100
AcDbEntity
  8
DEFPOINTS
 62
     0
440
 16777216
100
AcDbPoint
 10
20.85517300894252
 20
57.74287880671403
 30
0.0
  0
POINT
  5
11F72
330
117E2
100
AcDbEntity
  8
DEFPOINTS
 62
     0
440
 16777216
100
AcDbPoint
 10
24.35517227175779
 20
54.56033138822896
 30
0.0
  0
POINT
  5
11F73
330
117E2
100
AcDbEntity
  8
DEFPOINTS
 62
     0
440
 16777216
100
AcDbPoint
 10
24.35517227175779
 20
59.28255404479902
 30
0.0
  0
ENDBLK
  5
117E4
330
117E2
100
AcDbEntity
  8
0
100
AcDbBlockEnd
  0
BLOCK
  5
117EE
330
117ED
100
AcDbEntity
  8
0
100
AcDbBlockBegin
  2
*D7
 70
     1
 10
0.0
 20
0.0
 30
0.0
  3
*D7
  1

  0
LINE
  5
11F74
330
117ED
100
AcDbEntity
  8
DIME
 62
     0
440
 16777216
370
    -2
100
AcDbLine
 10
20.85517300894252
 20
58.11787880671403
 30
0.0
 11
20.85517300894252
 21
60.08755404479902
 31
0.0
  0
LINE
  5
11F75
330
117ED
100
AcDbEntity
  8
DIME
 62
     0
440
 16777216
370
    -2
100
AcDbLine
 10
21.10517300894252
 20
59.90755404479902
 30
0.0
 11
24.10517227175779
 21
59.90755404479902
 31
0.0
  0
SOLID
  5
11F76
330
117ED
100
AcDbEntity
  8
DIME
 62
     0
440
 16777216
100
AcDbTrace
 10
21.10517300894252
 20
59.94922071146569
 30
0.0
 11
21.10517300894252
 21
59.86588737813236
 31
0.0
 12
20.85517300894252
 22
59.90755404479902
 32
0.0
 13
20.85517300894252
 23
59.90755404479902
 33
0.0
  0
SOLID
  5
11F77
330
117ED
100
AcDbEntity
  8
DIME
 62
     0
440
 16777216
100
AcDbTrace
 10
24.10517227175779
 20
59.94922071146569
 30
0.0
 11
24.10517227175779
 21
59.86588737813236
 31
0.0
 12
24.35517227175779
 22
59.90755404479902
 32
0.0
 13
24.35517227175779
 23
59.90755404479902
 33
0.0
  0
MTEXT
  5
11F78
330
117ED
100
AcDbEntity
  8
DIME
 62
     0
440
 16777216
100
AcDbMText
 10
22.60517264035016
 20
60.13690261232972
 30
0.0
 40
0.25
 41
0.0
 46
0.0
 71
     5
 72
     1
  1
\A1;O.D.
 73
     1
 44
1.0
  0
POINT
  5
11F79
330
117ED
100
AcDbEntity
  8
DEFPOINTS
 62
     0
440
 16777216
100
AcDbPoint
 10
20.85517300894252
 20
57.74287880671403
 30
0.0
  0
POINT
  5
11F7A
330
117ED
100
AcDbEntity
  8
DEFPOINTS
 62
     0
440
 16777216
100
AcDbPoint
 10
24.35517227175779
 20
54.56033138822896
 30
0.0
  0
POINT
  5
11F7B
330
117ED
100
AcDbEntity
  8
DEFPOINTS
 62
     0
440
 16777216
100
AcDbPoint
 10
24.35517227175779
 20
59.90755404479902
 30
0.0
  0
ENDBLK
  5
117EF
330
117ED
100
AcDbEntity
  8
0
100
AcDbBlockEnd
  0
BLOCK
  5
117F9
330
117F8
100
AcDbEntity
  8
0
100
AcDbBlockBegin
  2
*D8
 70
     1
 10
0.0
 20
0.0
 30
0.0
  3
*D8
  1

  0
LINE
  5
11F7C
330
117F8
100
AcDbEntity
  8
DIME
 62
     0
440
 16777216
370
    -2
100
AcDbLine
 10
21.23017605679462
 20
55.74287880671404
 30
0.0
 11
25.66433013359585
 21
55.74287880671404
 31
0.0
  0
LINE
  5
11F7D
330
117F8
100
AcDbEntity
  8
DIME
 62
     0
440
 16777216
370
    -2
100
AcDbLine
 10
24.73017227175779
 20
54.24296796587278
 30
0.0
 11
25.66433013359585
 21
54.24296796587278
 31
0.0
  0
LINE
  5
11F7E
330
117F8
100
AcDbEntity
  8
DIME
 62
     0
440
 16777216
370
    -2
100
AcDbLine
 10
25.48433013359586
 20
55.49287880671403
 30
0.0
 11
25.48433013359586
 21
54.49296796587279
 31
0.0
  0
SOLID
  5
11F7F
330
117F8
100
AcDbEntity
  8
DIME
 62
     0
440
 16777216
100
AcDbTrace
 10
25.44266346692919
 20
55.49287880671403
 30
0.0
 11
25.52599680026252
 21
55.49287880671403
 31
0.0
 12
25.48433013359586
 22
55.74287880671404
 32
0.0
 13
25.48433013359586
 23
55.74287880671404
 33
0.0
  0
SOLID
  5
11F80
330
117F8
100
AcDbEntity
  8
DIME
 62
     0
440
 16777216
100
AcDbTrace
 10
25.44266346692919
 20
54.49296796587279
 30
0.0
 11
25.52599680026252
 21
54.49296796587279
 31
0.0
 12
25.48433013359586
 22
54.24296796587278
 32
0.0
 13
25.48433013359586
 23
54.24296796587278
 33
0.0
  0
MTEXT
  5
11F81
330
117F8
100
AcDbEntity
  8
DIME
 62
     0
440
 16777216
100
AcDbMText
 10
25.25506683209516
 20
54.99292338629341
 30
0.0
 40
0.25
 41
0.0
 46
0.0
 71
     5
 72
     1
  1
\A1;1 1/2"
 11
0.0000000000000001
 21
1.0
 31
0.0
 73
     1
 44
1.0
  0
POINT
  5
11F82
330
117F8
100
AcDbEntity
  8
DEFPOINTS
 62
     0
440
 16777216
100
AcDbPoint
 10
20.85517605679463
 20
55.74287880671404
 30
0.0
  0
POINT
  5
11F83
330
117F8
100
AcDbEntity
  8
DEFPOINTS
 62
     0
440
 16777216
100
AcDbPoint
 10
24.35517227175779
 20
54.24296796587278
 30
0.0
  0
POINT
  5
11F84
330
117F8
100
AcDbEntity
  8
DEFPOINTS
 62
     0
440
 16777216
100
AcDbPoint
 10
25.48433013359586
 20
54.24296796587278
 30
0.0
  0
ENDBLK
  5
117FA
330
117F8
100
AcDbEntity
  8
0
100
AcDbBlockEnd
  0
BLOCK
  5
11805
330
11804
100
AcDbEntity
  8
0
100
AcDbBlockBegin
  2
*D9
 70
     1
 10
0.0
 20
0.0
 30
0.0
  3
*D9
  1

  0
LINE
  5
11F85
330
11804
100
AcDbEntity
  8
DIME
 62
     0
440
 16777216
370
    -2
100
AcDbLine
 10
20.85517300894252
 20
58.11787880671403
 30
0.0
 11
20.85517300894252
 21
58.83755404479902
 31
0.0
  0
LINE
  5
11F86
330
11804
100
AcDbEntity
  8
DIME
 62
     0
440
 16777216
370
    -2
100
AcDbLine
 10
22.35517227175779
 20
54.61796796587276
 30
0.0
 11
22.35517227175779
 21
58.83755404479902
 31
0.0
  0
LINE
  5
11F87
330
11804
100
AcDbEntity
  8
DIME
 62
     0
440
 16777216
370
    -2
100
AcDbLine
 10
21.10517300894252
 20
58.65755404479902
 30
0.0
 11
22.10517227175779
 21
58.65755404479902
 31
0.0
  0
SOLID
  5
11F88
330
11804
100
AcDbEntity
  8
DIME
 62
     0
440
 16777216
100
AcDbTrace
 10
21.10517300894252
 20
58.69922071146569
 30
0.0
 11
21.10517300894252
 21
58.61588737813236
 31
0.0
 12
20.85517300894252
 22
58.65755404479902
 32
0.0
 13
20.85517300894252
 23
58.65755404479902
 33
0.0
  0
SOLID
  5
11F89
330
11804
100
AcDbEntity
  8
DIME
 62
     0
440
 16777216
100
AcDbTrace
 10
22.10517227175779
 20
58.69922071146569
 30
0.0
 11
22.10517227175779
 21
58.61588737813236
 31
0.0
 12
22.35517227175779
 22
58.65755404479902
 32
0.0
 13
22.35517227175779
 23
58.65755404479902
 33
0.0
  0
MTEXT
  5
11F8A
330
11804
100
AcDbEntity
  8
DIME
 62
     0
440
 16777216
100
AcDbMText
 10
21.60517264035016
 20
58.88681734629971
 30
0.0
 40
0.25
 41
0.0
 46
0.0
 71
     5
 72
     1
  1
\A1;1 1/2"
 73
     1
 44
1.0
  0
POINT
  5
11F8B
330
11804
100
AcDbEntity
  8
DEFPOINTS
 62
     0
440
 16777216
100
AcDbPoint
 10
20.85517300894252
 20
57.74287880671403
 30
0.0
  0
POINT
  5
11F8C
330
11804
100
AcDbEntity
  8
DEFPOINTS
 62
     0
440
 16777216
100
AcDbPoint
 10
22.35517227175779
 20
54.24296796587277
 30
0.0
  0
POINT
  5
11F8D
330
11804
100
AcDbEntity
  8
DEFPOINTS
 62
     0
440
 16777216
100
AcDbPoint
 10
22.35517227175779
 20
58.65755404479902
 30
0.0
  0
ENDBLK
  5
11806
330
11804
100
AcDbEntity
  8
0
100
AcDbBlockEnd
  0
BLOCK
  5
11811
330
11810
100
AcDbEntity
  8
0
100
AcDbBlockBegin
  2
*D10
 70
     1
 10
0.0
 20
0.0
 30
0.0
  3
*D10
  1

  0
LINE
  5
11F8E
330
11810
100
AcDbEntity
  8
DIME
 62
     0
440
 16777216
370
    -2
100
AcDbLine
 10
24.73017227175779
 20
54.24296796587277
 30
0.0
 11
26.28935850324949
 21
54.24296796587277
 31
0.0
  0
LINE
  5
11F8F
330
11810
100
AcDbEntity
  8
DIME
 62
     0
440
 16777216
370
    -2
100
AcDbLine
 10
26.10935850324949
 20
54.49296796587276
 30
0.0
 11
26.1093585032495
 21
57.49287880671403
 31
0.0
  0
SOLID
  5
11F90
330
11810
100
AcDbEntity
  8
DIME
 62
     0
440
 16777216
100
AcDbTrace
 10
26.06769183658282
 20
54.49296796587276
 30
0.0
 11
26.15102516991616
 21
54.49296796587276
 31
0.0
 12
26.10935850324949
 22
54.24296796587277
 32
0.0
 13
26.10935850324949
 23
54.24296796587277
 33
0.0
  0
SOLID
  5
11F91
330
11810
100
AcDbEntity
  8
DIME
 62
     0
440
 16777216
100
AcDbTrace
 10
26.06769183658283
 20
57.49287880671403
 30
0.0
 11
26.15102516991616
 21
57.49287880671403
 31
0.0
 12
26.1093585032495
 22
57.74287880671403
 32
0.0
 13
26.1093585032495
 23
57.74287880671403
 33
0.0
  0
MTEXT
  5
11F92
330
11810
100
AcDbEntity
  8
DIME
 62
     0
440
 16777216
100
AcDbMText
 10
25.88435850324948
 20
55.9929233862934
 30
0.0
 40
0.25
 41
0.0
 46
0.0
 71
     5
 72
     1
  1
\A1;F.W.
 11
0.0000000000000001
 21
1.0
 31
0.0
 73
     1
 44
1.0
  0
POINT
  5
11F93
330
11810
100
AcDbEntity
  8
DEFPOINTS
 62
     0
440
 16777216
100
AcDbPoint
 10
24.35517227175779
 20
54.24296796587277
 30
0.0
  0
POINT
  5
11F94
330
11810
100
AcDbEntity
  8
DEFPOINTS
 62
     0
440
 16777216
100
AcDbPoint
 10
20.85517300894252
 20
57.74287880671403
 30
0.0
  0
POINT
  5
11F95
330
11810
100
AcDbEntity
  8
DEFPOINTS
 62
     0
440
 16777216
100
AcDbPoint
 10
26.1093585032495
 20
57.74287880671403
 30
0.0
  0
ENDBLK
  5
11812
330
11810
100
AcDbEntity
  8
0
100
AcDbBlockEnd
  0
BLOCK
  5
1181C
330
1181B
100
AcDbEntity
  8
0
100
AcDbBlockBegin
  2
*D11
 70
     1
 10
0.0
 20
0.0
 30
0.0
  3
*D11
  1

  0
LINE
  5
11F96
330
1181B
100
AcDbEntity
  8
DIME
 62
     0
440
 16777216
370
    -2
100
AcDbLine
 10
21.23017300894252
 20
55.74287880671404
 30
0.0
 11
25.66432722816425
 21
55.74287880671404
 31
0.0
  0
LINE
  5
11F97
330
1181B
100
AcDbEntity
  8
DIME
 62
     0
440
 16777216
370
    -2
100
AcDbLine
 10
25.48432722816425
 20
55.99287880671404
 30
0.0
 11
25.48432722816425
 21
57.49287880671403
 31
0.0
  0
SOLID
  5
11F98
330
1181B
100
AcDbEntity
  8
DIME
 62
     0
440
 16777216
100
AcDbTrace
 10
25.44266056149758
 20
55.99287880671404
 30
0.0
 11
25.52599389483092
 21
55.99287880671404
 31
0.0
 12
25.48432722816425
 22
55.74287880671404
 32
0.0
 13
25.48432722816425
 23
55.74287880671404
 33
0.0
  0
SOLID
  5
11F99
330
1181B
100
AcDbEntity
  8
DIME
 62
     0
440
 16777216
100
AcDbTrace
 10
25.44266056149758
 20
57.49287880671403
 30
0.0
 11
25.52599389483092
 21
57.49287880671403
 31
0.0
 12
25.48432722816425
 22
57.74287880671403
 32
0.0
 13
25.48432722816425
 23
57.74287880671403
 33
0.0
  0
MTEXT
  5
11F9A
330
1181B
100
AcDbEntity
  8
DIME
 62
     0
440
 16777216
100
AcDbMText
 10
25.25497866063354
 20
56.74287880671404
 30
0.0
 40
0.25
 41
0.0
 46
0.0
 71
     5
 72
     1
  1
\A1;DLO
 11
0.0000000000000001
 21
1.0
 31
0.0
 73
     1
 44
1.0
  0
POINT
  5
11F9B
330
1181B
100
AcDbEntity
  8
DEFPOINTS
 62
     0
440
 16777216
100
AcDbPoint
 10
20.85517300894252
 20
55.74287880671404
 30
0.0
  0
POINT
  5
11F9C
330
1181B
100
AcDbEntity
  8
DEFPOINTS
 62
     0
440
 16777216
100
AcDbPoint
 10
20.85517300894252
 20
57.74287880671403
 30
0.0
  0
POINT
  5
11F9D
330
1181B
100
AcDbEntity
  8
DEFPOINTS
 62
     0
440
 16777216
100
AcDbPoint
 10
25.48432722816425
 20
57.74287880671403
 30
0.0
  0
ENDBLK
  5
1181D
330
1181B
100
AcDbEntity
  8
0
100
AcDbBlockEnd
  0
BLOCK
  5
11827
330
11826
100
AcDbEntity
  8
0
100
AcDbBlockBegin
  2
*D12
 70
     1
 10
0.0
 20
0.0
 30
0.0
  3
*D12
  1

  0
LINE
  5
11F9E
330
11826
100
AcDbEntity
  8
DIME
 62
     0
440
 16777216
370
    -2
100
AcDbLine
 10
24.73017227175779
 20
54.24296796587277
 30
0.0
 11
26.9143189809416
 21
54.24296796587277
 31
0.0
  0
LINE
  5
11F9F
330
11826
100
AcDbEntity
  8
DIME
 62
     0
440
 16777216
370
    -2
100
AcDbLine
 10
26.7343189809416
 20
54.49296796587276
 30
0.0
 11
26.7343189809416
 21
57.49287880671403
 31
0.0
  0
SOLID
  5
11FA0
330
11826
100
AcDbEntity
  8
DIME
 62
     0
440
 16777216
100
AcDbTrace
 10
26.69265231427493
 20
54.49296796587276
 30
0.0
 11
26.77598564760827
 21
54.49296796587276
 31
0.0
 12
26.7343189809416
 22
54.24296796587277
 32
0.0
 13
26.7343189809416
 23
54.24296796587277
 33
0.0
  0
SOLID
  5
11FA1
330
11826
100
AcDbEntity
  8
DIME
 62
     0
440
 16777216
100
AcDbTrace
 10
26.69265231427493
 20
57.49287880671403
 30
0.0
 11
26.77598564760827
 21
57.49287880671403
 31
0.0
 12
26.7343189809416
 22
57.74287880671403
 32
0.0
 13
26.7343189809416
 23
57.74287880671403
 33
0.0
  0
MTEXT
  5
11FA2
330
11826
100
AcDbEntity
  8
DIME
 62
     0
440
 16777216
100
AcDbMText
 10
26.5049704134109
 20
55.9929233862934
 30
0.0
 40
0.25
 41
0.0
 46
0.0
 71
     5
 72
     1
  1
\A1;O.D.
 11
0.0000000000000001
 21
1.0
 31
0.0
 73
     1
 44
1.0
  0
POINT
  5
11FA3
330
11826
100
AcDbEntity
  8
DEFPOINTS
 62
     0
440
 16777216
100
AcDbPoint
 10
24.35517227175779
 20
54.24296796587277
 30
0.0
  0
POINT
  5
11FA4
330
11826
100
AcDbEntity
  8
DEFPOINTS
 62
     0
440
 16777216
100
AcDbPoint
 10
20.85517300894252
 20
57.74287880671403
 30
0.0
  0
POINT
  5
11FA5
330
11826
100
AcDbEntity
  8
DEFPOINTS
 62
     0
440
 16777216
100
AcDbPoint
 10
26.7343189809416
 20
57.74287880671403
 30
0.0
  0
ENDBLK
  5
11828
330
11826
100
AcDbEntity
  8
0
100
AcDbBlockEnd
  0
BLOCK
  5
11832
330
11831
100
AcDbEntity
  8
0
100
AcDbBlockBegin
  2
*D13
 70
     1
 10
0.0
 20
0.0
 30
0.0
  3
*D13
  1

  0
LINE
  5
11FA6
330
11831
100
AcDbEntity
  8
DIME
 62
     0
440
 16777216
370
    -2
100
AcDbLine
 10
24.73017227175779
 20
48.24287880671404
 30
0.0
 11
26.91431264901966
 21
48.24287880671404
 31
0.0
  0
LINE
  5
11FA7
330
11831
100
AcDbEntity
  8
DIME
 62
     0
440
 16777216
370
    -2
100
AcDbLine
 10
24.73017227175779
 20
54.24296796587277
 30
0.0
 11
26.91431264901966
 21
54.24296796587277
 31
0.0
  0
LINE
  5
11FA8
330
11831
100
AcDbEntity
  8
DIME
 62
     0
440
 16777216
370
    -2
100
AcDbLine
 10
26.73431264901966
 20
48.49287880671404
 30
0.0
 11
26.73431264901966
 21
53.99296796587276
 31
0.0
  0
SOLID
  5
11FA9
330
11831
100
AcDbEntity
  8
DIME
 62
     0
440
 16777216
100
AcDbTrace
 10
26.692645982353
 20
48.49287880671404
 30
0.0
 11
26.77597931568633
 21
48.49287880671404
 31
0.0
 12
26.73431264901966
 22
48.24287880671404
 32
0.0
 13
26.73431264901966
 23
48.24287880671404
 33
0.0
  0
SOLID
  5
11FAA
330
11831
100
AcDbEntity
  8
DIME
 62
     0
440
 16777216
100
AcDbTrace
 10
26.692645982353
 20
53.99296796587276
 30
0.0
 11
26.77597931568633
 21
53.99296796587276
 31
0.0
 12
26.73431264901966
 22
54.24296796587277
 32
0.0
 13
26.73431264901966
 23
54.24296796587277
 33
0.0
  0
MTEXT
  5
11FAB
330
11831
100
AcDbEntity
  8
DIME
 62
     0
440
 16777216
100
AcDbMText
 10
26.50666940208923
 20
51.24292338629341
 30
0.0
 40
0.25
 41
0.0
 46
0.0
 71
     5
 72
     1
  1
\A1;6"
 11
0.0000000000000001
 21
1.0
 31
0.0
 73
     1
 44
1.0
  0
POINT
  5
11FAC
330
11831
100
AcDbEntity
  8
DEFPOINTS
 62
     0
440
 16777216
100
AcDbPoint
 10
24.35517227175779
 20
48.24287880671404
 30
0.0
  0
POINT
  5
11FAD
330
11831
100
AcDbEntity
  8
DEFPOINTS
 62
     0
440
 16777216
100
AcDbPoint
 10
24.35517227175779
 20
54.24296796587277
 30
0.0
  0
POINT
  5
11FAE
330
11831
100
AcDbEntity
  8
DEFPOINTS
 62
     0
440
 16777216
100
AcDbPoint
 10
26.73431264901966
 20
54.24296796587277
 30
0.0
  0
ENDBLK
  5
11833
330
11831
100
AcDbEntity
  8
0
100
AcDbBlockEnd
  0
BLOCK
  5
119EB
330
119EA
100
AcDbEntity
  8
0
100
AcDbBlockBegin
  2
*D14
 70
     1
 10
0.0
 20
0.0
 30
0.0
  3
*D14
  1

  0
LINE
  5
11FAF
330
119EA
100
AcDbEntity
  8
DIME
 62
     0
440
 16777216
370
    -2
100
AcDbLine
 10
41.34704698113631
 20
47.62239590349535
 30
0.0
 11
41.34704698113631
 21
45.65272066541036
 31
0.0
  0
LINE
  5
11FB0
330
119EA
100
AcDbEntity
  8
DIME
 62
     0
440
 16777216
370
    -2
100
AcDbLine
 10
47.34713614029504
 20
47.62239590349535
 30
0.0
 11
47.34713614029504
 21
45.65272066541036
 31
0.0
  0
LINE
  5
11FB1
330
119EA
100
AcDbEntity
  8
DIME
 62
     0
440
 16777216
370
    -2
100
AcDbLine
 10
41.59704698113631
 20
45.83272066541037
 30
0.0
 11
47.09713614029504
 21
45.83272066541037
 31
0.0
  0
SOLID
  5
11FB2
330
119EA
100
AcDbEntity
  8
DIME
 62
     0
440
 16777216
100
AcDbTrace
 10
41.59704698113631
 20
45.87438733207704
 30
0.0
 11
41.59704698113631
 21
45.79105399874371
 31
0.0
 12
41.34704698113631
 22
45.83272066541037
 32
0.0
 13
41.34704698113631
 23
45.83272066541037
 33
0.0
  0
SOLID
  5
11FB3
330
119EA
100
AcDbEntity
  8
DIME
 62
     0
440
 16777216
100
AcDbTrace
 10
47.09713614029504
 20
45.87438733207704
 30
0.0
 11
47.09713614029504
 21
45.79105399874371
 31
0.0
 12
47.34713614029504
 22
45.83272066541037
 32
0.0
 13
47.34713614029504
 23
45.83272066541037
 33
0.0
  0
MTEXT
  5
11FB4
330
119EA
100
AcDbEntity
  8
DIME
 62
     0
440
 16777216
100
AcDbMText
 10
44.34709156071567
 20
46.06036391234079
 30
0.0
 40
0.25
 41
0.0
 46
0.0
 71
     5
 72
     1
  1
\A1;6"
 73
     1
 44
1.0
  0
POINT
  5
11FB5
330
119EA
100
AcDbEntity
  8
DEFPOINTS
 62
     0
440
 16777216
100
AcDbPoint
 10
41.34704698113631
 20
47.99739590349535
 30
0.0
  0
POINT
  5
11FB6
330
119EA
100
AcDbEntity
  8
DEFPOINTS
 62
     0
440
 16777216
100
AcDbPoint
 10
47.34713614029504
 20
47.99739590349535
 30
0.0
  0
POINT
  5
11FB7
330
119EA
100
AcDbEntity
  8
DEFPOINTS
 62
     0
440
 16777216
100
AcDbPoint
 10
47.34713614029504
 20
45.83272066541037
 30
0.0
  0
ENDBLK
  5
119EC
330
119EA
100
AcDbEntity
  8
0
100
AcDbBlockEnd
  0
BLOCK
  5
119F7
330
119F6
100
AcDbEntity
  8
0
100
AcDbBlockBegin
  2
*D15
 70
     1
 10
0.0
 20
0.0
 30
0.0
  3
*D15
  1

  0
LINE
  5
11FB8
330
119F6
100
AcDbEntity
  8
DIME
 62
     0
440
 16777216
370
    -2
100
AcDbLine
 10
48.84713540311031
 20
51.12230674433663
 30
0.0
 11
48.84713540311031
 21
46.90272066541036
 31
0.0
  0
LINE
  5
11FB9
330
119F6
100
AcDbEntity
  8
DIME
 62
     0
440
 16777216
370
    -2
100
AcDbLine
 10
49.09713540311031
 20
47.08272066541037
 30
0.0
 11
50.59713540311031
 21
47.08272066541037
 31
0.0
  0
SOLID
  5
11FBA
330
119F6
100
AcDbEntity
  8
DIME
 62
     0
440
 16777216
100
AcDbTrace
 10
49.09713540311031
 20
47.12438733207704
 30
0.0
 11
49.09713540311031
 21
47.04105399874371
 31
0.0
 12
48.84713540311031
 22
47.08272066541037
 32
0.0
 13
48.84713540311031
 23
47.08272066541037
 33
0.0
  0
SOLID
  5
11FBB
330
119F6
100
AcDbEntity
  8
DIME
 62
     0
440
 16777216
100
AcDbTrace
 10
50.59713540311031
 20
47.12438733207704
 30
0.0
 11
50.59713540311031
 21
47.04105399874371
 31
0.0
 12
50.84713540311032
 22
47.08272066541037
 32
0.0
 13
50.84713540311032
 23
47.08272066541037
 33
0.0
  0
MTEXT
  5
11FBC
330
119F6
100
AcDbEntity
  8
DIME
 62
     0
440
 16777216
100
AcDbMText
 10
49.84713540311031
 20
47.31206923294106
 30
0.0
 40
0.25
 41
0.0
 46
0.0
 71
     5
 72
     1
  1
\A1;DLO
 73
     1
 44
1.0
  0
POINT
  5
11FBD
330
119F6
100
AcDbEntity
  8
DEFPOINTS
 62
     0
440
 16777216
100
AcDbPoint
 10
48.84713540311031
 20
51.49730674433663
 30
0.0
  0
POINT
  5
11FBE
330
119F6
100
AcDbEntity
  8
DEFPOINTS
 62
     0
440
 16777216
100
AcDbPoint
 10
50.84713540311032
 20
51.13000776901545
 30
0.0
  0
POINT
  5
11FBF
330
119F6
100
AcDbEntity
  8
DEFPOINTS
 62
     0
440
 16777216
100
AcDbPoint
 10
50.84713540311032
 20
47.08272066541037
 30
0.0
  0
ENDBLK
  5
119F8
330
119F6
100
AcDbEntity
  8
0
100
AcDbBlockEnd
  0
BLOCK
  5
11A02
330
11A01
100
AcDbEntity
  8
0
100
AcDbBlockBegin
  2
*D16
 70
     1
 10
0.0
 20
0.0
 30
0.0
  3
*D16
  1

  0
LINE
  5
11FC0
330
11A01
100
AcDbEntity
  8
DIME
 62
     0
440
 16777216
370
    -2
100
AcDbLine
 10
47.34713614029504
 20
47.62239590349535
 30
0.0
 11
47.34713614029504
 21
46.27772066541036
 31
0.0
  0
LINE
  5
11FC1
330
11A01
100
AcDbEntity
  8
DIME
 62
     0
440
 16777216
370
    -2
100
AcDbLine
 10
47.59713614029504
 20
46.45772066541037
 30
0.0
 11
50.59713540311031
 21
46.45772066541037
 31
0.0
  0
SOLID
  5
11FC2
330
11A01
100
AcDbEntity
  8
DIME
 62
     0
440
 16777216
100
AcDbTrace
 10
47.59713614029504
 20
46.49938733207704
 30
0.0
 11
47.59713614029504
 21
46.41605399874371
 31
0.0
 12
47.34713614029504
 22
46.45772066541037
 32
0.0
 13
47.34713614029504
 23
46.45772066541037
 33
0.0
  0
SOLID
  5
11FC3
330
11A01
100
AcDbEntity
  8
DIME
 62
     0
440
 16777216
100
AcDbTrace
 10
50.59713540311031
 20
46.49938733207704
 30
0.0
 11
50.59713540311031
 21
46.41605399874371
 31
0.0
 12
50.84713540311032
 22
46.45772066541037
 32
0.0
 13
50.84713540311032
 23
46.45772066541037
 33
0.0
  0
MTEXT
  5
11FC4
330
11A01
100
AcDbEntity
  8
DIME
 62
     0
440
 16777216
100
AcDbMText
 10
49.09713577170268
 20
46.68272066541037
 30
0.0
 40
0.25
 41
0.0
 46
0.0
 71
     5
 72
     1
  1
\A1;F.W.
 73
     1
 44
1.0
  0
POINT
  5
11FC5
330
11A01
100
AcDbEntity
  8
DEFPOINTS
 62
     0
440
 16777216
100
AcDbPoint
 10
47.34713614029504
 20
47.99739590349535
 30
0.0
  0
POINT
  5
11FC6
330
11A01
100
AcDbEntity
  8
DEFPOINTS
 62
     0
440
 16777216
100
AcDbPoint
 10
50.84713540311032
 20
51.13118472505405
 30
0.0
  0
POINT
  5
11FC7
330
11A01
100
AcDbEntity
  8
DEFPOINTS
 62
     0
440
 16777216
100
AcDbPoint
 10
50.84713540311032
 20
46.45772066541037
 30
0.0
  0
ENDBLK
  5
11A03
330
11A01
100
AcDbEntity
  8
0
100
AcDbBlockEnd
  0
BLOCK
  5
11A0D
330
11A0C
100
AcDbEntity
  8
0
100
AcDbBlockBegin
  2
*D17
 70
     1
 10
0.0
 20
0.0
 30
0.0
  3
*D17
  1

  0
LINE
  5
11FC8
330
11A0C
100
AcDbEntity
  8
DIME
 62
     0
440
 16777216
370
    -2
100
AcDbLine
 10
47.34713614029504
 20
47.62239590349535
 30
0.0
 11
47.34713614029504
 21
45.65272066541036
 31
0.0
  0
LINE
  5
11FC9
330
11A0C
100
AcDbEntity
  8
DIME
 62
     0
440
 16777216
370
    -2
100
AcDbLine
 10
47.59713614029504
 20
45.83272066541037
 30
0.0
 11
50.59713540311031
 21
45.83272066541037
 31
0.0
  0
SOLID
  5
11FCA
330
11A0C
100
AcDbEntity
  8
DIME
 62
     0
440
 16777216
100
AcDbTrace
 10
47.59713614029504
 20
45.87438733207704
 30
0.0
 11
47.59713614029504
 21
45.79105399874371
 31
0.0
 12
47.34713614029504
 22
45.83272066541037
 32
0.0
 13
47.34713614029504
 23
45.83272066541037
 33
0.0
  0
SOLID
  5
11FCB
330
11A0C
100
AcDbEntity
  8
DIME
 62
     0
440
 16777216
100
AcDbTrace
 10
50.59713540311031
 20
45.87438733207704
 30
0.0
 11
50.59713540311031
 21
45.79105399874371
 31
0.0
 12
50.84713540311032
 22
45.83272066541037
 32
0.0
 13
50.84713540311032
 23
45.83272066541037
 33
0.0
  0
MTEXT
  5
11FCC
330
11A0C
100
AcDbEntity
  8
DIME
 62
     0
440
 16777216
100
AcDbMText
 10
49.09713577170268
 20
46.06206923294106
 30
0.0
 40
0.25
 41
0.0
 46
0.0
 71
     5
 72
     1
  1
\A1;O.D.
 73
     1
 44
1.0
  0
POINT
  5
11FCD
330
11A0C
100
AcDbEntity
  8
DEFPOINTS
 62
     0
440
 16777216
100
AcDbPoint
 10
47.34713614029504
 20
47.99739590349535
 30
0.0
  0
POINT
  5
11FCE
330
11A0C
100
AcDbEntity
  8
DEFPOINTS
 62
     0
440
 16777216
100
AcDbPoint
 10
50.84713540311032
 20
51.13118472505405
 30
0.0
  0
POINT
  5
11FCF
330
11A0C
100
AcDbEntity
  8
DEFPOINTS
 62
     0
440
 16777216
100
AcDbPoint
 10
50.84713540311032
 20
45.83272066541037
 30
0.0
  0
ENDBLK
  5
11A0E
330
11A0C
100
AcDbEntity
  8
0
100
AcDbBlockEnd
  0
BLOCK
  5
11A18
330
11A17
100
AcDbEntity
  8
0
100
AcDbBlockBegin
  2
*D18
 70
     1
 10
0.0
 20
0.0
 30
0.0
  3
*D18
  1

  0
LINE
  5
11FD0
330
11A17
100
AcDbEntity
  8
DIME
 62
     0
440
 16777216
370
    -2
100
AcDbLine
 10
51.22213540306105
 20
51.49730066535236
 30
0.0
 11
53.40632163448694
 21
51.497265258329
 31
0.0
  0
LINE
  5
11FD1
330
11A17
100
AcDbEntity
  8
DIME
 62
     0
440
 16777216
370
    -2
100
AcDbLine
 10
53.2263175818544
 20
51.2472681762743
 30
0.0
 11
53.22626895050579
 21
48.24730059911243
 31
0.0
  0
SOLID
  5
11FD2
330
11A17
100
AcDbEntity
  8
DIME
 62
     0
440
 16777216
100
AcDbTrace
 10
53.18465091519322
 20
51.247268851717
 30
0.0
 11
53.2679842485156
 21
51.2472675008316
 31
0.0
 12
53.22632163451059
 22
51.49726817624145
 32
0.0
 13
53.22632163451059
 23
51.49726817624145
 33
0.0
  0
SOLID
  5
11FD3
330
11A17
100
AcDbEntity
  8
DIME
 62
     0
440
 16777216
100
AcDbTrace
 10
53.1846022838446
 20
48.24730127455513
 30
0.0
 11
53.26793561716698
 21
48.24729992366973
 31
0.0
 12
53.2262648978496
 22
47.99730059914528
 32
0.0
 13
53.2262648978496
 23
47.99730059914528
 33
0.0
  0
MTEXT
  5
11FD4
330
11A17
100
AcDbEntity
  8
DIME
 62
     0
440
 16777216
100
AcDbMText
 10
52.99694469867954
 20
49.74728810557692
 30
0.0
 40
0.25
 41
0.0
 46
0.0
 71
     5
 72
     1
  1
\A1;O.D.
 11
0.0000162106247359
 21
0.9999999998686078
 31
0.0
 73
     1
 44
1.0
  0
POINT
  5
11FD5
330
11A17
100
AcDbEntity
  8
DEFPOINTS
 62
     0
440
 16777216
100
AcDbPoint
 10
50.84713540311032
 20
51.49730674433663
 30
0.0
  0
POINT
  5
11FD6
330
11A17
100
AcDbEntity
  8
DEFPOINTS
 62
     0
440
 16777216
100
AcDbPoint
 10
47.34713614029504
 20
47.99739590349536
 30
0.0
  0
POINT
  5
11FD7
330
11A17
100
AcDbEntity
  8
DEFPOINTS
 62
     0
440
 16777216
100
AcDbPoint
 10
53.2262648978496
 20
47.99730059914528
 30
0.0
  0
ENDBLK
  5
11A19
330
11A17
100
AcDbEntity
  8
0
100
AcDbBlockEnd
  0
BLOCK
  5
11A23
330
11A22
100
AcDbEntity
  8
0
100
AcDbBlockBegin
  2
*D19
 70
     1
 10
0.0
 20
0.0
 30
0.0
  3
*D19
  1

  0
LINE
  5
11FD8
330
11A22
100
AcDbEntity
  8
DIME
 62
     0
440
 16777216
370
    -2
100
AcDbLine
 10
51.22213540306105
 20
51.49730066535236
 30
0.0
 11
52.78132163456903
 21
51.49727538996947
 31
0.0
  0
LINE
  5
11FD9
330
11A22
100
AcDbEntity
  8
DIME
 62
     0
440
 16777216
370
    -2
100
AcDbLine
 10
52.6013175819365
 20
51.24727830791476
 30
0.0
 11
52.60126895058788
 21
48.24731073075289
 31
0.0
  0
SOLID
  5
11FDA
330
11A22
100
AcDbEntity
  8
DIME
 62
     0
440
 16777216
100
AcDbTrace
 10
52.55965091527531
 20
51.24727898335746
 30
0.0
 11
52.64298424859769
 21
51.24727763247207
 31
0.0
 12
52.60132163459267
 22
51.49727830788191
 32
0.0
 13
52.60132163459267
 23
51.49727830788191
 33
0.0
  0
SOLID
  5
11FDB
330
11A22
100
AcDbEntity
  8
DIME
 62
     0
440
 16777216
100
AcDbTrace
 10
52.5596022839267
 20
48.24731140619559
 30
0.0
 11
52.64293561724907
 21
48.2473100553102
 31
0.0
 12
52.60126489793169
 22
47.99731073078574
 32
0.0
 13
52.60126489793169
 23
47.99731073078574
 33
0.0
  0
MTEXT
  5
11FDC
330
11A22
100
AcDbEntity
  8
DIME
 62
     0
440
 16777216
100
AcDbMText
 10
52.37629326629175
 20
49.74729816672439
 30
0.0
 40
0.25
 41
0.0
 46
0.0
 71
     5
 72
     1
  1
\A1;F.W.
 11
0.0000162106247359
 21
0.9999999998686078
 31
0.0
 73
     1
 44
1.0
  0
POINT
  5
11FDD
330
11A22
100
AcDbEntity
  8
DEFPOINTS
 62
     0
440
 16777216
100
AcDbPoint
 10
50.84713540311032
 20
51.49730674433663
 30
0.0
  0
POINT
  5
11FDE
330
11A22
100
AcDbEntity
  8
DEFPOINTS
 62
     0
440
 16777216
100
AcDbPoint
 10
47.34713614029504
 20
47.99739590349536
 30
0.0
  0
POINT
  5
11FDF
330
11A22
100
AcDbEntity
  8
DEFPOINTS
 62
     0
440
 16777216
100
AcDbPoint
 10
52.60126489793169
 20
47.99731073078574
 30
0.0
  0
ENDBLK
  5
11A24
330
11A22
100
AcDbEntity
  8
0
100
AcDbBlockEnd
  0
BLOCK
  5
11A2E
330
11A2D
100
AcDbEntity
  8
0
100
AcDbBlockBegin
  2
*D20
 70
     1
 10
0.0
 20
0.0
 30
0.0
  3
*D20
  1

  0
LINE
  5
11FE0
330
11A2D
100
AcDbEntity
  8
DIME
 62
     0
440
 16777216
370
    -2
100
AcDbLine
 10
47.72213918814714
 20
49.99739590349536
 30
0.0
 11
52.15629326494838
 21
49.99739590349535
 31
0.0
  0
LINE
  5
11FE1
330
11A2D
100
AcDbEntity
  8
DIME
 62
     0
440
 16777216
370
    -2
100
AcDbLine
 10
51.22213540311031
 20
51.49730674433661
 30
0.0
 11
52.15629326494838
 21
51.49730674433661
 31
0.0
  0
LINE
  5
11FE2
330
11A2D
100
AcDbEntity
  8
DIME
 62
     0
440
 16777216
370
    -2
100
AcDbLine
 10
51.97629326494837
 20
50.24739590349535
 30
0.0
 11
51.97629326494837
 21
51.24730674433661
 31
0.0
  0
SOLID
  5
11FE3
330
11A2D
100
AcDbEntity
  8
DIME
 62
     0
440
 16777216
100
AcDbTrace
 10
51.93462659828171
 20
50.24739590349535
 30
0.0
 11
52.01795993161503
 21
50.24739590349535
 31
0.0
 12
51.97629326494837
 22
49.99739590349535
 32
0.0
 13
51.97629326494837
 23
49.99739590349535
 33
0.0
  0
SOLID
  5
11FE4
330
11A2D
100
AcDbEntity
  8
DIME
 62
     0
440
 16777216
100
AcDbTrace
 10
51.93462659828171
 20
51.24730674433661
 30
0.0
 11
52.01795993161503
 21
51.24730674433661
 31
0.0
 12
51.97629326494837
 22
51.49730674433661
 32
0.0
 13
51.97629326494837
 23
51.49730674433661
 33
0.0
  0
MTEXT
  5
11FE5
330
11A2D
100
AcDbEntity
  8
DIME
 62
     0
440
 16777216
100
AcDbMText
 10
51.74702996344768
 20
50.74735132391599
 30
0.0
 40
0.25
 41
0.0
 46
0.0
 71
     5
 72
     1
  1
\A1;1 1/2"
 11
0.0000000000000001
 21
1.0
 31
0.0
 73
     1
 44
1.0
  0
POINT
  5
11FE6
330
11A2D
100
AcDbEntity
  8
DEFPOINTS
 62
     0
440
 16777216
100
AcDbPoint
 10
47.34713918814715
 20
49.99739590349536
 30
0.0
  0
POINT
  5
11FE7
330
11A2D
100
AcDbEntity
  8
DEFPOINTS
 62
     0
440
 16777216
100
AcDbPoint
 10
50.84713540311032
 20
51.49730674433661
 30
0.0
  0
POINT
  5
11FE8
330
11A2D
100
AcDbEntity
  8
DEFPOINTS
 62
     0
440
 16777216
100
AcDbPoint
 10
51.97629326494837
 20
51.49730674433661
 30
0.0
  0
ENDBLK
  5
11A2F
330
11A2D
100
AcDbEntity
  8
0
100
AcDbBlockEnd
  0
BLOCK
  5
11A3A
330
11A39
100
AcDbEntity
  8
0
100
AcDbBlockBegin
  2
*D21
 70
     1
 10
0.0
 20
0.0
 30
0.0
  3
*D21
  1

  0
LINE
  5
11FE9
330
11A39
100
AcDbEntity
  8
DIME
 62
     0
440
 16777216
370
    -2
100
AcDbLine
 10
47.72213918809788
 20
49.99738982451109
 30
0.0
 11
52.15629035949315
 21
49.99731794415041
 31
0.0
  0
LINE
  5
11FEA
330
11A39
100
AcDbEntity
  8
DIME
 62
     0
440
 16777216
370
    -2
100
AcDbLine
 10
51.97628630686061
 20
49.74732086209572
 30
0.0
 11
51.97626199092352
 21
48.24732086250618
 31
0.0
  0
SOLID
  5
11FEB
330
11A39
100
AcDbEntity
  8
DIME
 62
     0
440
 16777216
100
AcDbTrace
 10
51.93461964019942
 20
49.74732153753842
 30
0.0
 11
52.0179529735218
 21
49.74732018665302
 31
0.0
 12
51.9762903595168
 22
49.99732086206287
 32
0.0
 13
51.9762903595168
 23
49.99732086206287
 33
0.0
  0
SOLID
  5
11FEC
330
11A39
100
AcDbEntity
  8
DIME
 62
     0
440
 16777216
100
AcDbTrace
 10
51.93459532426232
 20
48.24732153794887
 30
0.0
 11
52.0179286575847
 21
48.24732018706348
 31
0.0
 12
51.97625793826733
 22
47.99732086253903
 32
0.0
 13
51.97625793826733
 23
47.99732086253903
 33
0.0
  0
MTEXT
  5
11FED
330
11A39
100
AcDbEntity
  8
DIME
 62
     0
440
 16777216
100
AcDbMText
 10
51.74692558139151
 20
48.9973245801845
 30
0.0
 40
0.25
 41
0.0
 46
0.0
 71
     5
 72
     1
  1
\A1;DLO
 11
0.0000162106247359
 21
0.9999999998686078
 31
0.0
 73
     1
 44
1.0
  0
POINT
  5
11FEE
330
11A39
100
AcDbEntity
  8
DEFPOINTS
 62
     0
440
 16777216
100
AcDbPoint
 10
47.34713918814715
 20
49.99739590349537
 30
0.0
  0
POINT
  5
11FEF
330
11A39
100
AcDbEntity
  8
DEFPOINTS
 62
     0
440
 16777216
100
AcDbPoint
 10
47.34713614029504
 20
47.99739590349536
 30
0.0
  0
POINT
  5
11FF0
330
11A39
100
AcDbEntity
  8
DEFPOINTS
 62
     0
440
 16777216
100
AcDbPoint
 10
51.97625793826733
 20
47.99732086253903
 30
0.0
  0
ENDBLK
  5
11A3B
330
11A39
100
AcDbEntity
  8
0
100
AcDbBlockEnd
  0
BLOCK
  5
11A45
330
11A44
100
AcDbEntity
  8
0
100
AcDbBlockBegin
  2
*D22
 70
     1
 10
0.0
 20
0.0
 30
0.0
  3
*D22
  1

  0
LINE
  5
11FF1
330
11A44
100
AcDbEntity
  8
DIME
 62
     0
440
 16777216
370
    -2
100
AcDbLine
 10
47.34713614029504
 20
47.62239590349535
 30
0.0
 11
47.34713614029504
 21
46.90272066541036
 31
0.0
  0
LINE
  5
11FF2
330
11A44
100
AcDbEntity
  8
DIME
 62
     0
440
 16777216
370
    -2
100
AcDbLine
 10
48.84713540311031
 20
51.12230674433663
 30
0.0
 11
48.84713540311031
 21
46.90272066541036
 31
0.0
  0
LINE
  5
11FF3
330
11A44
100
AcDbEntity
  8
DIME
 62
     0
440
 16777216
370
    -2
100
AcDbLine
 10
47.59713614029504
 20
47.08272066541037
 30
0.0
 11
48.5971354031103
 21
47.08272066541037
 31
0.0
  0
SOLID
  5
11FF4
330
11A44
100
AcDbEntity
  8
DIME
 62
     0
440
 16777216
100
AcDbTrace
 10
47.59713614029504
 20
47.12438733207704
 30
0.0
 11
47.59713614029504
 21
47.04105399874371
 31
0.0
 12
47.34713614029504
 22
47.08272066541037
 32
0.0
 13
47.34713614029504
 23
47.08272066541037
 33
0.0
  0
SOLID
  5
11FF5
330
11A44
100
AcDbEntity
  8
DIME
 62
     0
440
 16777216
100
AcDbTrace
 10
48.5971354031103
 20
47.12438733207704
 30
0.0
 11
48.5971354031103
 21
47.04105399874371
 31
0.0
 12
48.84713540311031
 22
47.08272066541037
 32
0.0
 13
48.84713540311031
 23
47.08272066541037
 33
0.0
  0
MTEXT
  5
11FF6
330
11A44
100
AcDbEntity
  8
DIME
 62
     0
440
 16777216
100
AcDbMText
 10
48.09713577170267
 20
47.31198396691104
 30
0.0
 40
0.25
 41
0.0
 46
0.0
 71
     5
 72
     1
  1
\A1;1 1/2"
 73
     1
 44
1.0
  0
POINT
  5
11FF7
330
11A44
100
AcDbEntity
  8
DEFPOINTS
 62
     0
440
 16777216
100
AcDbPoint
 10
47.34713614029504
 20
47.99739590349535
 30
0.0
  0
POINT
  5
11FF8
330
11A44
100
AcDbEntity
  8
DEFPOINTS
 62
     0
440
 16777216
100
AcDbPoint
 10
48.84713540311031
 20
51.49730674433663
 30
0.0
  0
POINT
  5
11FF9
330
11A44
100
AcDbEntity
  8
DEFPOINTS
 62
     0
440
 16777216
100
AcDbPoint
 10
48.84713540311031
 20
47.08272066541037
 30
0.0
  0
ENDBLK
  5
11A46
330
11A44
100
AcDbEntity
  8
0
100
AcDbBlockEnd
  0
BLOCK
  5
11A51
330
11A50
100
AcDbEntity
  8
0
100
AcDbBlockBegin
  2
*D23
 70
     1
 10
0.0
 20
0.0
 30
0.0
  3
*D23
  1

  0
LINE
  5
11FFA
330
11A50
100
AcDbEntity
  8
DIME
 62
     0
440
 16777216
370
    -2
100
AcDbLine
 10
51.22213540306105
 20
57.49738982451109
 30
0.0
 11
53.40637937745488
 21
57.49735441655168
 31
0.0
  0
LINE
  5
11FFB
330
11A50
100
AcDbEntity
  8
DIME
 62
     0
440
 16777216
370
    -2
100
AcDbLine
 10
51.22213540306105
 20
51.49730066535236
 30
0.0
 11
53.40628211226115
 21
51.49726525896968
 31
0.0
  0
LINE
  5
11FFC
330
11A50
100
AcDbEntity
  8
DIME
 62
     0
440
 16777216
370
    -2
100
AcDbLine
 10
53.22637532482235
 20
57.24735733449699
 30
0.0
 11
53.226286164941
 21
51.74726817684929
 31
0.0
  0
SOLID
  5
11FFD
330
11A50
100
AcDbEntity
  8
DIME
 62
     0
440
 16777216
100
AcDbTrace
 10
53.18470865816116
 20
57.24735800993968
 30
0.0
 11
53.26804199148353
 21
57.24735665905429
 31
0.0
 12
53.22637937747853
 22
57.49735733446414
 32
0.0
 13
53.22637937747853
 23
57.49735733446414
 33
0.0
  0
SOLID
  5
11FFE
330
11A50
100
AcDbEntity
  8
DIME
 62
     0
440
 16777216
100
AcDbTrace
 10
53.1846194982798
 20
51.74726885229198
 30
0.0
 11
53.26795283160218
 21
51.74726750140659
 31
0.0
 12
53.2262821122848
 22
51.49726817688214
 32
0.0
 13
53.2262821122848
 23
51.49726817688214
 33
0.0
  0
MTEXT
  5
11FFF
330
11A50
100
AcDbEntity
  8
DIME
 62
     0
440
 16777216
100
AcDbMText
 10
52.99868749798116
 20
54.49731644591237
 30
0.0
 40
0.25
 41
0.0
 46
0.0
 71
     5
 72
     1
  1
\A1;6"
 11
0.0000162106247359
 21
0.9999999998686078
 31
0.0
 73
     1
 44
1.0
  0
POINT
  5
12000
330
11A50
100
AcDbEntity
  8
DEFPOINTS
 62
     0
440
 16777216
100
AcDbPoint
 10
50.84713540311032
 20
57.49739590349537
 30
0.0
  0
POINT
  5
12001
330
11A50
100
AcDbEntity
  8
DEFPOINTS
 62
     0
440
 16777216
100
AcDbPoint
 10
50.84713540311032
 20
51.49730674433663
 30
0.0
  0
POINT
  5
12002
330
11A50
100
AcDbEntity
  8
DEFPOINTS
 62
     0
440
 16777216
100
AcDbPoint
 10
53.2262821122848
 20
51.49726817688214
 30
0.0
  0
ENDBLK
  5
11A52
330
11A50
100
AcDbEntity
  8
0
100
AcDbBlockEnd
  0
BLOCK
  5
11B78
330
11B77
100
AcDbEntity
  8
0
100
AcDbBlockBegin
  2
*D24
 70
     1
 10
0.0
 20
0.0
 30
0.0
  3
*D24
  1

  0
LINE
  5
12003
330
11B77
100
AcDbEntity
  8
DIME
 62
     0
440
 16777216
370
    -2
100
AcDbLine
 10
69.73911747932105
 20
51.12230674433663
 30
0.0
 11
69.73911747932105
 21
49.68846219475636
 31
0.0
  0
LINE
  5
12004
330
11B77
100
AcDbEntity
  8
DIME
 62
     0
440
 16777216
370
    -2
100
AcDbLine
 10
69.48911747932105
 20
49.86846219475637
 30
0.0
 11
67.98911747932105
 21
49.86846219475637
 31
0.0
  0
SOLID
  5
12005
330
11B77
100
AcDbEntity
  8
DIME
 62
     0
440
 16777216
100
AcDbTrace
 10
69.48911747932105
 20
49.91012886142303
 30
0.0
 11
69.48911747932105
 21
49.82679552808971
 31
0.0
 12
69.73911747932105
 22
49.86846219475637
 32
0.0
 13
69.73911747932105
 23
49.86846219475637
 33
0.0
  0
SOLID
  5
12006
330
11B77
100
AcDbEntity
  8
DIME
 62
     0
440
 16777216
100
AcDbTrace
 10
67.98911747932105
 20
49.91012886142303
 30
0.0
 11
67.98911747932105
 21
49.82679552808971
 31
0.0
 12
67.73911747932105
 22
49.86846219475637
 32
0.0
 13
67.73911747932105
 23
49.86846219475637
 33
0.0
  0
MTEXT
  5
12007
330
11B77
100
AcDbEntity
  8
DIME
 62
     0
440
 16777216
100
AcDbMText
 10
68.73911747932105
 20
50.09781076228706
 30
0.0
 40
0.25
 41
0.0
 46
0.0
 71
     5
 72
     1
  1
\A1;DLO
 73
     1
 44
1.0
  0
POINT
  5
12008
330
11B77
100
AcDbEntity
  8
DEFPOINTS
 62
     0
440
 16777216
100
AcDbPoint
 10
69.73911747932105
 20
51.49730674433663
 30
0.0
  0
POINT
  5
12009
330
11B77
100
AcDbEntity
  8
DEFPOINTS
 62
     0
440
 16777216
100
AcDbPoint
 10
67.73911747932105
 20
51.49730674433663
 30
0.0
  0
POINT
  5
1200A
330
11B77
100
AcDbEntity
  8
DEFPOINTS
 62
     0
440
 16777216
100
AcDbPoint
 10
67.73911747932105
 20
49.86846219475637
 30
0.0
  0
ENDBLK
  5
11B79
330
11B77
100
AcDbEntity
  8
0
100
AcDbBlockEnd
  0
BLOCK
  5
11B83
330
11B82
100
AcDbEntity
  8
0
100
AcDbBlockBegin
  2
*D25
 70
     1
 10
0.0
 20
0.0
 30
0.0
  3
*D25
  1

  0
LINE
  5
1200B
330
11B82
100
AcDbEntity
  8
DIME
 62
     0
440
 16777216
370
    -2
100
AcDbLine
 10
67.36411747932105
 20
57.49739590349536
 30
0.0
 11
65.17989463202616
 21
57.49739590349536
 31
0.0
  0
LINE
  5
1200C
330
11B82
100
AcDbEntity
  8
DIME
 62
     0
440
 16777216
370
    -2
100
AcDbLine
 10
67.36411747932105
 20
51.49730674433663
 30
0.0
 11
65.17989463202616
 21
51.49730674433663
 31
0.0
  0
LINE
  5
1200D
330
11B82
100
AcDbEntity
  8
DIME
 62
     0
440
 16777216
370
    -2
100
AcDbLine
 10
65.35989463202617
 20
57.24739590349535
 30
0.0
 11
65.35989463202617
 21
51.74730674433663
 31
0.0
  0
SOLID
  5
1200E
330
11B82
100
AcDbEntity
  8
DIME
 62
     0
440
 16777216
100
AcDbTrace
 10
65.3182279653595
 20
57.24739590349535
 30
0.0
 11
65.40156129869284
 21
57.24739590349535
 31
0.0
 12
65.35989463202617
 22
57.49739590349536
 32
0.0
 13
65.35989463202617
 23
57.49739590349536
 33
0.0
  0
SOLID
  5
1200F
330
11B82
100
AcDbEntity
  8
DIME
 62
     0
440
 16777216
100
AcDbTrace
 10
65.3182279653595
 20
51.74730674433663
 30
0.0
 11
65.40156129869284
 21
51.74730674433663
 31
0.0
 12
65.35989463202617
 22
51.49730674433663
 32
0.0
 13
65.35989463202617
 23
51.49730674433663
 33
0.0
  0
MTEXT
  5
12010
330
11B82
100
AcDbEntity
  8
DIME
 62
     0
440
 16777216
100
AcDbMText
 10
65.13225138509572
 20
54.497351323916
 30
0.0
 40
0.25
 41
0.0
 46
0.0
 71
     5
 72
     1
  1
\A1;6"
 11
0.0000000000000001
 21
1.0
 31
0.0
 73
     1
 44
1.0
  0
POINT
  5
12011
330
11B82
100
AcDbEntity
  8
DEFPOINTS
 62
     0
440
 16777216
100
AcDbPoint
 10
67.73911747932105
 20
57.49739590349536
 30
0.0
  0
POINT
  5
12012
330
11B82
100
AcDbEntity
  8
DEFPOINTS
 62
     0
440
 16777216
100
AcDbPoint
 10
67.73911747932105
 20
51.49730674433663
 30
0.0
  0
POINT
  5
12013
330
11B82
100
AcDbEntity
  8
DEFPOINTS
 62
     0
440
 16777216
100
AcDbPoint
 10
65.35989463202617
 20
51.49730674433663
 30
0.0
  0
ENDBLK
  5
11B84
330
11B82
100
AcDbEntity
  8
0
100
AcDbBlockEnd
  0
BLOCK
  5
11BF3
330
11BF2
100
AcDbEntity
  8
0
100
AcDbBlockBegin
  2
*D26
 70
     1
 10
0.0
 20
0.0
 30
0.0
  3
*D26
  1

  0
LINE
  5
12035
330
11BF2
100
AcDbEntity
  8
DIME
 62
     0
440
 16777216
370
    -2
100
AcDbLine
 10
76.87956178158914
 20
51.12230674433663
 30
0.0
 11
76.87956178158914
 21
49.68846219475636
 31
0.0
  0
LINE
  5
12036
330
11BF2
100
AcDbEntity
  8
DIME
 62
     0
440
 16777216
370
    -2
100
AcDbLine
 10
77.12956178158915
 20
49.86846219475637
 30
0.0
 11
78.62956178158916
 21
49.86846219475637
 31
0.0
  0
SOLID
  5
12037
330
11BF2
100
AcDbEntity
  8
DIME
 62
     0
440
 16777216
100
AcDbTrace
 10
77.12956178158915
 20
49.91012886142303
 30
0.0
 11
77.12956178158915
 21
49.82679552808971
 31
0.0
 12
76.87956178158914
 22
49.86846219475637
 32
0.0
 13
76.87956178158914
 23
49.86846219475637
 33
0.0
  0
SOLID
  5
12038
330
11BF2
100
AcDbEntity
  8
DIME
 62
     0
440
 16777216
100
AcDbTrace
 10
78.62956178158916
 20
49.91012886142303
 30
0.0
 11
78.62956178158916
 21
49.82679552808971
 31
0.0
 12
78.87956178158916
 22
49.86846219475637
 32
0.0
 13
78.87956178158916
 23
49.86846219475637
 33
0.0
  0
MTEXT
  5
12039
330
11BF2
100
AcDbEntity
  8
DIME
 62
     0
440
 16777216
100
AcDbMText
 10
77.87956178158916
 20
50.09781076228706
 30
0.0
 40
0.25
 41
0.0
 46
0.0
 71
     5
 72
     1
  1
\A1;DLO
 73
     1
 44
1.0
  0
POINT
  5
1203A
330
11BF2
100
AcDbEntity
  8
DEFPOINTS
 62
     0
440
 16777216
100
AcDbPoint
 10
76.87956178158914
 20
51.49730674433663
 30
0.0
  0
POINT
  5
1203B
330
11BF2
100
AcDbEntity
  8
DEFPOINTS
 62
     0
440
 16777216
100
AcDbPoint
 10
78.87956178158916
 20
51.24612978829802
 30
0.0
  0
POINT
  5
1203C
330
11BF2
100
AcDbEntity
  8
DEFPOINTS
 62
     0
440
 16777216
100
AcDbPoint
 10
78.87956178158916
 20
49.86846219475637
 30
0.0
  0
ENDBLK
  5
11BF4
330
11BF2
100
AcDbEntity
  8
0
100
AcDbBlockEnd
  0
BLOCK
  5
11BFE
330
11BFD
100
AcDbEntity
  8
0
100
AcDbBlockBegin
  2
*D27
 70
     1
 10
0.0
 20
0.0
 30
0.0
  3
*D27
  1

  0
LINE
  5
1203D
330
11BFD
100
AcDbEntity
  8
DIME
 62
     0
440
 16777216
370
    -2
100
AcDbLine
 10
79.25456178158916
 20
57.49739590349536
 30
0.0
 11
81.43878462888404
 21
57.49739590349535
 31
0.0
  0
LINE
  5
1203E
330
11BFD
100
AcDbEntity
  8
DIME
 62
     0
440
 16777216
370
    -2
100
AcDbLine
 10
79.25456178158916
 20
51.49730674433663
 30
0.0
 11
81.43878462888404
 21
51.49730674433662
 31
0.0
  0
LINE
  5
1203F
330
11BFD
100
AcDbEntity
  8
DIME
 62
     0
440
 16777216
370
    -2
100
AcDbLine
 10
81.25878462888403
 20
57.24739590349535
 30
0.0
 11
81.25878462888403
 21
51.74730674433662
 31
0.0
  0
SOLID
  5
12040
330
11BFD
100
AcDbEntity
  8
DIME
 62
     0
440
 16777216
100
AcDbTrace
 10
81.21711796221736
 20
57.24739590349535
 30
0.0
 11
81.30045129555069
 21
57.24739590349535
 31
0.0
 12
81.25878462888403
 22
57.49739590349535
 32
0.0
 13
81.25878462888403
 23
57.49739590349535
 33
0.0
  0
SOLID
  5
12041
330
11BFD
100
AcDbEntity
  8
DIME
 62
     0
440
 16777216
100
AcDbTrace
 10
81.21711796221736
 20
51.74730674433662
 30
0.0
 11
81.30045129555069
 21
51.74730674433662
 31
0.0
 12
81.25878462888403
 22
51.49730674433662
 32
0.0
 13
81.25878462888403
 23
51.49730674433662
 33
0.0
  0
MTEXT
  5
12042
330
11BFD
100
AcDbEntity
  8
DIME
 62
     0
440
 16777216
100
AcDbMText
 10
81.03114138195358
 20
54.497351323916
 30
0.0
 40
0.25
 41
0.0
 46
0.0
 71
     5
 72
     1
  1
\A1;6"
 11
0.0000000000000001
 21
1.0
 31
0.0
 73
     1
 44
1.0
  0
POINT
  5
12043
330
11BFD
100
AcDbEntity
  8
DEFPOINTS
 62
     0
440
 16777216
100
AcDbPoint
 10
78.87956178158916
 20
57.49739590349536
 30
0.0
  0
POINT
  5
12044
330
11BFD
100
AcDbEntity
  8
DEFPOINTS
 62
     0
440
 16777216
100
AcDbPoint
 10
78.87956178158916
 20
51.49730674433663
 30
0.0
  0
POINT
  5
12045
330
11BFD
100
AcDbEntity
  8
DEFPOINTS
 62
     0
440
 16777216
100
AcDbPoint
 10
81.25878462888403
 20
51.49730674433662
 30
0.0
  0
ENDBLK
  5
11BFF
330
11BFD
100
AcDbEntity
  8
0
100
AcDbBlockEnd
  0
BLOCK
  5
11D5F
330
11D5E
100
AcDbEntity
  8
0
100
AcDbBlockBegin
  2
*D28
 70
     1
 10
0.0
 20
0.0
 30
0.0
  3
*D28
  1

  0
LINE
  5
11F19
330
11D5E
100
AcDbEntity
  8
DIME
 62
     0
440
 16777216
370
    -2
100
AcDbLine
 10
18.42950634264504
 20
24.08013611619961
 30
0.0
 11
19.54772108872467
 21
21.38052691056847
 31
0.0
  0
LINE
  5
11F1A
330
11D5E
100
AcDbEntity
  8
DIME
 62
     0
440
 16777216
370
    -2
100
AcDbLine
 10
19.70980795402678
 20
21.64249608451177
 30
0.0
 11
24.89771306126997
 21
23.79139674023646
 31
0.0
  0
SOLID
  5
11F1B
330
11D5E
100
AcDbEntity
  8
DIME
 62
     0
440
 16777216
100
AcDbTrace
 10
19.69386281101157
 20
21.68099106503307
 30
0.0
 11
19.72575309704199
 21
21.60400110399047
 31
0.0
 12
19.47883807089896
 22
21.5468252264205
 32
0.0
 13
19.47883807089896
 23
21.5468252264205
 33
0.0
  0
SOLID
  5
11F1C
330
11D5E
100
AcDbEntity
  8
DIME
 62
     0
440
 16777216
100
AcDbTrace
 10
24.88176791825476
 20
23.82989172075776
 30
0.0
 11
24.91365820428518
 21
23.75290175971515
 31
0.0
 12
25.12868294439779
 22
23.88706759832773
 32
0.0
 13
25.12868294439779
 23
23.88706759832773
 33
0.0
  0
MTEXT
  5
11F1D
330
11D5E
100
AcDbEntity
  8
DIME
 62
     0
440
 16777216
100
AcDbMText
 10
22.21599261061771
 20
22.9288368597265
 30
0.0
 40
0.25
 41
0.0
 46
0.0
 71
     5
 72
     1
  1
\A1;OD
 11
0.9238795325112921
 21
0.3826834323650766
 31
0.0
 73
     1
 44
1.0
  0
POINT
  5
11F1E
330
11D5E
100
AcDbEntity
  8
DEFPOINTS
 62
     0
440
 16777216
100
AcDbPoint
 10
18.28600005550813
 20
24.42659094089135
 30
0.0
  0
POINT
  5
11F1F
330
11D5E
100
AcDbEntity
  8
DEFPOINTS
 62
     0
440
 16777216
100
AcDbPoint
 10
24.15677998711187
 20
26.23344889911801
 30
0.0
  0
POINT
  5
11F20
330
11D5E
100
AcDbEntity
  8
DEFPOINTS
 62
     0
440
 16777216
100
AcDbPoint
 10
25.12868294439779
 20
23.88706759832773
 30
0.0
  0
ENDBLK
  5
11D60
330
11D5E
100
AcDbEntity
  8
0
100
AcDbBlockEnd
  0
BLOCK
  5
11D6A
330
11D69
100
AcDbEntity
  8
0
100
AcDbBlockBegin
  2
*D29
 70
     1
 10
0.0
 20
0.0
 30
0.0
  3
*D29
  1

  0
LINE
  5
11F21
330
11D69
100
AcDbEntity
  8
DIME
 62
     0
440
 16777216
370
    -2
100
AcDbLine
 10
18.42950634264504
 20
24.08013611619961
 30
0.0
 11
19.30854391585278
 21
21.95795168512587
 31
0.0
  0
LINE
  5
11F22
330
11D69
100
AcDbEntity
  8
DIME
 62
     0
440
 16777216
370
    -2
100
AcDbLine
 10
19.47063078115489
 20
22.21992085906917
 30
0.0
 11
24.65853588839807
 21
24.36882151479386
 31
0.0
  0
SOLID
  5
11F23
330
11D69
100
AcDbEntity
  8
DIME
 62
     0
440
 16777216
100
AcDbTrace
 10
19.45468563813967
 20
22.25841583959048
 30
0.0
 11
19.4865759241701
 21
22.18142587854787
 31
0.0
 12
19.23966089802706
 22
22.1242500009779
 32
0.0
 13
19.23966089802706
 23
22.1242500009779
 33
0.0
  0
SOLID
  5
11F24
330
11D69
100
AcDbEntity
  8
DIME
 62
     0
440
 16777216
100
AcDbTrace
 10
24.64259074538286
 20
24.40731649531517
 30
0.0
 11
24.67448103141328
 21
24.33032653427256
 31
0.0
 12
24.8895057715259
 22
24.46449237288513
 32
0.0
 13
24.8895057715259
 23
24.46449237288513
 33
0.0
  0
MTEXT
  5
11F25
330
11D69
100
AcDbEntity
  8
DIME
 62
     0
440
 16777216
100
AcDbMText
 10
21.97847956249434
 20
23.50224408174655
 30
0.0
 40
0.25
 41
0.0
 46
0.0
 71
     5
 72
     1
  1
\A1;FW
 11
0.9238795325112921
 21
0.3826834323650766
 31
0.0
 73
     1
 44
1.0
  0
POINT
  5
11F26
330
11D69
100
AcDbEntity
  8
DEFPOINTS
 62
     0
440
 16777216
100
AcDbPoint
 10
18.28600005550813
 20
24.42659094089135
 30
0.0
  0
POINT
  5
11F27
330
11D69
100
AcDbEntity
  8
DEFPOINTS
 62
     0
440
 16777216
100
AcDbPoint
 10
24.15677998711187
 20
26.23344889911801
 30
0.0
  0
POINT
  5
11F28
330
11D69
100
AcDbEntity
  8
DEFPOINTS
 62
     0
440
 16777216
100
AcDbPoint
 10
24.8895057715259
 20
24.46449237288513
 30
0.0
  0
ENDBLK
  5
11D6B
330
11D69
100
AcDbEntity
  8
0
100
AcDbBlockEnd
  0
BLOCK
  5
11D75
330
11D74
100
AcDbEntity
  8
0
100
AcDbBlockBegin
  2
*D30
 70
     1
 10
0.0
 20
0.0
 30
0.0
  3
*D30
  1

  0
LINE
  5
11F29
330
11D74
100
AcDbEntity
  8
DIME
 62
     0
440
 16777216
370
    -2
100
AcDbLine
 10
18.42950634264504
 20
24.08013611619961
 30
0.0
 11
19.06936674298089
 21
22.53537645968326
 31
0.0
  0
LINE
  5
11F2A
330
11D74
100
AcDbEntity
  8
DIME
 62
     0
440
 16777216
370
    -2
100
AcDbLine
 10
22.27553697357887
 20
25.54654466590141
 30
0.0
 11
22.87061294308211
 21
24.10990418968431
 31
0.0
  0
LINE
  5
11F2B
330
11D74
100
AcDbEntity
  8
DIME
 62
     0
440
 16777216
370
    -2
100
AcDbLine
 10
19.231453608283
 20
22.79734563362656
 30
0.0
 11
22.57076004212858
 21
24.18053164744507
 31
0.0
  0
SOLID
  5
11F2C
330
11D74
100
AcDbEntity
  8
DIME
 62
     0
440
 16777216
100
AcDbTrace
 10
19.21550846526779
 20
22.83584061414786
 30
0.0
 11
19.24739875129821
 21
22.75885065310526
 31
0.0
 12
19.00048372515518
 22
22.70167477553529
 32
0.0
 13
19.00048372515518
 23
22.70167477553529
 33
0.0
  0
SOLID
  5
11F2D
330
11D74
100
AcDbEntity
  8
DIME
 62
     0
440
 16777216
100
AcDbTrace
 10
22.55481489911336
 20
24.21902662796638
 30
0.0
 11
22.58670518514378
 21
24.14203666692377
 31
0.0
 12
22.8017299252564
 22
24.27620250553634
 32
0.0
 13
22.8017299252564
 23
24.27620250553634
 33
0.0
  0
MTEXT
  5
11F2E
330
11D74
100
AcDbEntity
  8
DIME
 62
     0
440
 16777216
100
AcDbMText
 10
20.81337155807216
 20
23.70075031234826
 30
0.0
 40
0.25
 41
0.0
 46
0.0
 71
     5
 72
     1
  1
\A1;4 1/8"
 11
0.9238795325112921
 21
0.3826834323650766
 31
0.0
 73
     1
 44
1.0
  0
POINT
  5
11F2F
330
11D74
100
AcDbEntity
  8
DEFPOINTS
 62
     0
440
 16777216
100
AcDbPoint
 10
18.28600005550813
 20
24.42659094089135
 30
0.0
  0
POINT
  5
11F30
330
11D74
100
AcDbEntity
  8
DEFPOINTS
 62
     0
440
 16777216
100
AcDbPoint
 10
22.13203068644197
 20
25.89299949059315
 30
0.0
  0
POINT
  5
11F31
330
11D74
100
AcDbEntity
  8
DEFPOINTS
 62
     0
440
 16777216
100
AcDbPoint
 10
22.8017299252564
 20
24.27620250553634
 30
0.0
  0
ENDBLK
  5
11D76
330
11D74
100
AcDbEntity
  8
0
100
AcDbBlockEnd
  0
BLOCK
  5
11D81
330
11D80
100
AcDbEntity
  8
0
100
AcDbBlockBegin
  2
*D31
 70
     1
 10
0.0
 20
0.0
 30
0.0
  3
*D31
  1

  0
LINE
  5
11F32
330
11D80
100
AcDbEntity
  8
DIME
 62
     0
440
 16777216
370
    -2
100
AcDbLine
 10
14.27701720175767
 20
25.54994501302131
 30
0.0
 11
13.68195150827298
 21
24.11332934530757
 31
0.0
  0
LINE
  5
11F33
330
11D80
100
AcDbEntity
  8
DIME
 62
     0
440
 16777216
370
    -2
100
AcDbLine
 10
13.51986464297087
 20
24.37529851925087
 30
0.0
 11
12.13517255570051
 21
24.94885676150894
 31
0.0
  0
SOLID
  5
11F34
330
11D80
100
AcDbEntity
  8
DIME
 62
     0
440
 16777216
100
AcDbTrace
 10
13.53580978598608
 20
24.41379349977218
 30
0.0
 11
13.50391949995566
 21
24.33680353872957
 31
0.0
 12
13.75083452609869
 22
24.2796276611596
 32
0.0
 13
13.75083452609869
 23
24.2796276611596
 33
0.0
  0
SOLID
  5
11F35
330
11D80
100
AcDbEntity
  8
DIME
 62
     0
440
 16777216
100
AcDbTrace
 10
12.15111769871573
 20
24.98735174203024
 30
0.0
 11
12.1192274126853
 21
24.91036178098763
 31
0.0
 12
11.90420267257269
 22
25.04452761960021
 32
0.0
 13
11.90420267257269
 23
25.04452761960021
 33
0.0
  0
MTEXT
  5
11F36
330
11D80
100
AcDbEntity
  8
DIME
 62
     0
440
 16777216
100
AcDbMText
 10
12.91528649636635
 20
24.8739680877323
 30
0.0
 40
0.25
 41
0.0
 46
0.0
 71
     5
 72
     1
  1
\A1;DLO
 11
0.9238795325112921
 21
-0.382683432365077
 31
0.0
 73
     1
 44
1.0
  0
POINT
  5
11F37
330
11D80
100
AcDbEntity
  8
DEFPOINTS
 62
     0
440
 16777216
100
AcDbPoint
 10
14.42052348889458
 20
25.89639983771304
 30
0.0
  0
POINT
  5
11F38
330
11D80
100
AcDbEntity
  8
DEFPOINTS
 62
     0
440
 16777216
100
AcDbPoint
 10
12.40623005266981
 20
26.25652892931334
 30
0.0
  0
POINT
  5
11F39
330
11D80
100
AcDbEntity
  8
DEFPOINTS
 62
     0
440
 16777216
100
AcDbPoint
 10
11.90420267257269
 20
25.04452761960021
 30
0.0
  0
ENDBLK
  5
11D82
330
11D80
100
AcDbEntity
  8
0
100
AcDbBlockEnd
  0
BLOCK
  5
11D8C
330
11D8B
100
AcDbEntity
  8
0
100
AcDbBlockBegin
  2
*D32
 70
     1
 10
0.0
 20
0.0
 30
0.0
  3
*D32
  1

  0
LINE
  5
11F3A
330
11D8B
100
AcDbEntity
  8
DIME
 62
     0
440
 16777216
370
    -2
100
AcDbLine
 10
18.14249376837123
 20
24.08013611619962
 30
0.0
 11
17.02264371121653
 21
21.37657892039236
 31
0.0
  0
LINE
  5
11F3B
330
11D8B
100
AcDbEntity
  8
DIME
 62
     0
440
 16777216
370
    -2
100
AcDbLine
 10
16.86055684591442
 20
21.63854809433566
 30
0.0
 11
11.65681820995672
 21
23.79400721239412
 31
0.0
  0
SOLID
  5
11F3C
330
11D8B
100
AcDbEntity
  8
DIME
 62
     0
440
 16777216
100
AcDbTrace
 10
16.87650198892963
 20
21.67704307485696
 30
0.0
 11
16.84461170289921
 21
21.60005311381435
 31
0.0
 12
17.09152672904224
 22
21.54287723624439
 32
0.0
 13
17.09152672904224
 23
21.54287723624439
 33
0.0
  0
SOLID
  5
11F3D
330
11D8B
100
AcDbEntity
  8
DIME
 62
     0
440
 16777216
100
AcDbTrace
 10
11.67276335297193
 20
23.83250219291542
 30
0.0
 11
11.64087306694151
 21
23.75551223187281
 31
0.0
 12
11.4258483268289
 22
23.88967807048539
 32
0.0
 13
11.4258483268289
 23
23.88967807048539
 33
0.0
  0
MTEXT
  5
11F3E
330
11D8B
100
AcDbEntity
  8
DIME
 62
     0
440
 16777216
100
AcDbMText
 10
14.34645542496623
 20
22.92816810071728
 30
0.0
 40
0.25
 41
0.0
 46
0.0
 71
     5
 72
     1
  1
\A1;OD
 11
0.9238795325112921
 21
-0.382683432365077
 31
0.0
 73
     1
 44
1.0
  0
POINT
  5
11F3F
330
11D8B
100
AcDbEntity
  8
DEFPOINTS
 62
     0
440
 16777216
100
AcDbPoint
 10
18.28600005550813
 20
24.42659094089135
 30
0.0
  0
POINT
  5
11F40
330
11D8B
100
AcDbEntity
  8
DEFPOINTS
 62
     0
440
 16777216
100
AcDbPoint
 10
12.40623005266981
 20
26.25652892931334
 30
0.0
  0
POINT
  5
11F41
330
11D8B
100
AcDbEntity
  8
DEFPOINTS
 62
     0
440
 16777216
100
AcDbPoint
 10
11.4258483268289
 20
23.88967807048539
 30
0.0
  0
ENDBLK
  5
11D8D
330
11D8B
100
AcDbEntity
  8
0
100
AcDbBlockEnd
  0
BLOCK
  5
11D97
330
11D96
100
AcDbEntity
  8
0
100
AcDbBlockBegin
  2
*D33
 70
     1
 10
0.0
 20
0.0
 30
0.0
  3
*D33
  1

  0
LINE
  5
11F42
330
11D96
100
AcDbEntity
  8
DIME
 62
     0
440
 16777216
370
    -2
100
AcDbLine
 10
18.14249376837123
 20
24.08013611619962
 30
0.0
 11
17.26182088408842
 21
21.95400369494976
 31
0.0
  0
LINE
  5
11F43
330
11D96
100
AcDbEntity
  8
DIME
 62
     0
440
 16777216
370
    -2
100
AcDbLine
 10
17.09973401878631
 20
22.21597286889306
 30
0.0
 11
11.89599538282862
 21
24.37143198695153
 31
0.0
  0
SOLID
  5
11F44
330
11D96
100
AcDbEntity
  8
DIME
 62
     0
440
 16777216
100
AcDbTrace
 10
17.11567916180153
 20
22.25446784941436
 30
0.0
 11
17.0837888757711
 21
22.17747788837176
 31
0.0
 12
17.33070390191414
 22
22.1203020108018
 32
0.0
 13
17.33070390191414
 23
22.1203020108018
 33
0.0
  0
SOLID
  5
11F45
330
11D96
100
AcDbEntity
  8
DIME
 62
     0
440
 16777216
100
AcDbTrace
 10
11.91194052584383
 20
24.40992696747283
 30
0.0
 11
11.8800502398134
 21
24.33293700643022
 31
0.0
 12
11.66502549970079
 22
24.4671028450428
 32
0.0
 13
11.66502549970079
 23
24.4671028450428
 33
0.0
  0
MTEXT
  5
11F46
330
11D96
100
AcDbEntity
  8
DIME
 62
     0
440
 16777216
100
AcDbMText
 10
14.58396847308961
 20
23.50157532273733
 30
0.0
 40
0.25
 41
0.0
 46
0.0
 71
     5
 72
     1
  1
\A1;FW
 11
0.9238795325112921
 21
-0.382683432365077
 31
0.0
 73
     1
 44
1.0
  0
POINT
  5
11F47
330
11D96
100
AcDbEntity
  8
DEFPOINTS
 62
     0
440
 16777216
100
AcDbPoint
 10
18.28600005550813
 20
24.42659094089135
 30
0.0
  0
POINT
  5
11F48
330
11D96
100
AcDbEntity
  8
DEFPOINTS
 62
     0
440
 16777216
100
AcDbPoint
 10
12.40623005266981
 20
26.25652892931334
 30
0.0
  0
POINT
  5
11F49
330
11D96
100
AcDbEntity
  8
DEFPOINTS
 62
     0
440
 16777216
100
AcDbPoint
 10
11.66502549970079
 20
24.4671028450428
 30
0.0
  0
ENDBLK
  5
11D98
330
11D96
100
AcDbEntity
  8
0
100
AcDbBlockEnd
  0
BLOCK
  5
11DA2
330
11DA1
100
AcDbEntity
  8
0
100
AcDbBlockBegin
  2
*D34
 70
     1
 10
0.0
 20
0.0
 30
0.0
  3
*D34
  1

  0
LINE
  5
11F4A
330
11DA1
100
AcDbEntity
  8
DIME
 62
     0
440
 16777216
370
    -2
100
AcDbLine
 10
18.14249376837123
 20
24.08013611619962
 30
0.0
 11
17.5009980569603
 21
22.53142846950713
 31
0.0
  0
LINE
  5
11F4B
330
11DA1
100
AcDbEntity
  8
DIME
 62
     0
440
 16777216
370
    -2
100
AcDbLine
 10
14.27699622808549
 20
25.54998276557035
 30
0.0
 11
13.68192025858225
 21
24.11334228935324
 31
0.0
  0
LINE
  5
11F4C
330
11DA1
100
AcDbEntity
  8
DIME
 62
     0
440
 16777216
370
    -2
100
AcDbLine
 10
17.3389111916582
 20
22.79339764345043
 30
0.0
 11
13.98177315953579
 21
24.18396974711401
 31
0.0
  0
SOLID
  5
11F4D
330
11DA1
100
AcDbEntity
  8
DIME
 62
     0
440
 16777216
100
AcDbTrace
 10
17.35485633467341
 20
22.83189262397174
 30
0.0
 11
17.32296604864299
 21
22.75490266292913
 31
0.0
 12
17.56988107478602
 22
22.69772678535916
 32
0.0
 13
17.56988107478602
 23
22.69772678535916
 33
0.0
  0
SOLID
  5
11F4E
330
11DA1
100
AcDbEntity
  8
DIME
 62
     0
440
 16777216
100
AcDbTrace
 10
13.997718302551
 20
24.22246472763531
 30
0.0
 11
13.96582801652058
 21
24.1454747665927
 31
0.0
 12
13.75080327640796
 22
24.27964060520527
 32
0.0
 13
13.75080327640796
 23
24.27964060520527
 33
0.0
  0
MTEXT
  5
11F4F
330
11DA1
100
AcDbEntity
  8
DIME
 62
     0
440
 16777216
100
AcDbMText
 10
15.74807744273062
 20
23.70049536709467
 30
0.0
 40
0.25
 41
0.0
 46
0.0
 71
     5
 72
     1
  1
\A1;4 1/8"
 11
0.9238795325112921
 21
-0.382683432365077
 31
0.0
 73
     1
 44
1.0
  0
POINT
  5
11F50
330
11DA1
100
AcDbEntity
  8
DEFPOINTS
 62
     0
440
 16777216
100
AcDbPoint
 10
18.28600005550813
 20
24.42659094089135
 30
0.0
  0
POINT
  5
11F51
330
11DA1
100
AcDbEntity
  8
DEFPOINTS
 62
     0
440
 16777216
100
AcDbPoint
 10
14.4205025152224
 20
25.89643759026208
 30
0.0
  0
POINT
  5
11F52
330
11DA1
100
AcDbEntity
  8
DEFPOINTS
 62
     0
440
 16777216
100
AcDbPoint
 10
13.75080327640796
 20
24.27964060520527
 30
0.0
  0
ENDBLK
  5
11DA3
330
11DA1
100
AcDbEntity
  8
0
100
AcDbBlockEnd
  0
BLOCK
  5
11DAE
330
11DAD
100
AcDbEntity
  8
0
100
AcDbBlockBegin
  2
*D35
 70
     1
 10
0.0
 20
0.0
 30
0.0
  3
*D35
  1

  0
LINE
  5
11F53
330
11DAD
100
AcDbEntity
  8
DIME
 62
     0
440
 16777216
370
    -2
100
AcDbLine
 10
22.27551599990669
 20
25.54650691335237
 30
0.0
 11
22.87058169339138
 21
24.10989124563862
 31
0.0
  0
LINE
  5
11F54
330
11DAD
100
AcDbEntity
  8
DIME
 62
     0
440
 16777216
370
    -2
100
AcDbLine
 10
23.03266855869349
 20
24.37186041958192
 30
0.0
 11
24.41935871552618
 21
24.94624628935127
 31
0.0
  0
SOLID
  5
11F55
330
11DAD
100
AcDbEntity
  8
DIME
 62
     0
440
 16777216
100
AcDbTrace
 10
23.01672341567828
 20
24.41035540010322
 30
0.0
 11
23.0486137017087
 21
24.33336543906062
 31
0.0
 12
22.80169867556567
 22
24.27618956149065
 32
0.0
 13
22.80169867556567
 23
24.27618956149065
 33
0.0
  0
SOLID
  5
11F56
330
11DAD
100
AcDbEntity
  8
DIME
 62
     0
440
 16777216
100
AcDbTrace
 10
24.40341357251097
 20
24.98474126987257
 30
0.0
 11
24.43530385854139
 21
24.90775130882997
 31
0.0
 12
24.650328598654
 22
25.04191714744254
 32
0.0
 13
24.650328598654
 23
25.04191714744254
 33
0.0
  0
MTEXT
  5
11F57
330
11DAD
100
AcDbEntity
  8
DIME
 62
     0
440
 16777216
100
AcDbMText
 10
23.63824574007917
 20
24.87094380181899
 30
0.0
 40
0.25
 41
0.0
 46
0.0
 71
     5
 72
     1
  1
\A1;DLO
 11
0.9238795325112921
 21
0.3826834323650766
 31
0.0
 73
     1
 44
1.0
  0
POINT
  5
11F58
330
11DAD
100
AcDbEntity
  8
DEFPOINTS
 62
     0
440
 16777216
100
AcDbPoint
 10
22.13200971276979
 20
25.8929617380441
 30
0.0
  0
POINT
  5
11F59
330
11DAD
100
AcDbEntity
  8
DEFPOINTS
 62
     0
440
 16777216
100
AcDbPoint
 10
24.15677998711187
 20
26.23344889911801
 30
0.0
  0
POINT
  5
11F5A
330
11DAD
100
AcDbEntity
  8
DEFPOINTS
 62
     0
440
 16777216
100
AcDbPoint
 10
24.650328598654
 20
25.04191714744254
 30
0.0
  0
ENDBLK
  5
11DAF
330
11DAD
100
AcDbEntity
  8
0
100
AcDbBlockEnd
  0
BLOCK
  5
11EC8
330
11EC7
100
AcDbEntity
  8
0
100
AcDbBlockBegin
  2
*D36
 70
     1
 10
0.0
 20
0.0
 30
0.0
  3
*D36
  1

  0
LINE
  5
12069
330
11EC7
100
AcDbEntity
  8
DIME
 62
     0
440
 16777216
370
    -2
100
AcDbLine
 10
44.90925452115341
 20
25.03583405462698
 30
0.0
 11
45.76242261347466
 21
22.9760096316698
 31
0.0
  0
LINE
  5
1206A
330
11EC7
100
AcDbEntity
  8
DIME
 62
     0
440
 16777216
370
    -2
100
AcDbLine
 10
45.46257085747574
 20
23.04664195022414
 30
0.0
 11
42.47210069408707
 21
21.80800544508983
 31
0.0
  0
SOLID
  5
1206B
330
11EC7
100
AcDbEntity
  8
DIME
 62
     0
440
 16777216
100
AcDbTrace
 10
45.44662633849031
 20
23.08513718922111
 30
0.0
 11
45.47851537646117
 21
23.00814671122716
 31
0.0
 12
45.69354229145759
 22
23.14230906413674
 32
0.0
 13
45.69354229145759
 23
23.14230906413674
 33
0.0
  0
SOLID
  5
1206C
330
11EC7
100
AcDbEntity
  8
DIME
 62
     0
440
 16777216
100
AcDbTrace
 10
42.45615617510163
 20
21.84650068408681
 30
0.0
 11
42.4880452130725
 21
21.76951020609286
 31
0.0
 12
42.24112926010522
 22
21.71233833117724
 32
0.0
 13
42.24112926010522
 23
21.71233833117724
 33
0.0
  0
MTEXT
  5
1206D
330
11EC7
100
AcDbEntity
  8
DIME
 62
     0
440
 16777216
100
AcDbMText
 10
43.8795713136388
 20
22.63921556775398
 30
0.0
 40
0.25
 41
0.0
 46
0.0
 71
     5
 72
     1
  1
\A1;O.D.
 11
0.9238857359274108
 21
0.3826684556504057
 31
0.0
 73
     1
 44
1.0
  0
POINT
  5
1206E
330
11EC7
100
AcDbEntity
  8
DEFPOINTS
 62
     0
440
 16777216
100
AcDbPoint
 10
44.76575385028451
 20
25.38229120559976
 30
0.0
  0
POINT
  5
1206F
330
11EC7
100
AcDbEntity
  8
DEFPOINTS
 62
     0
440
 16777216
100
AcDbPoint
 10
41.49603404748186
 20
23.511239778856
 30
0.0
  0
POINT
  5
12070
330
11EC7
100
AcDbEntity
  8
DEFPOINTS
 62
     0
440
 16777216
100
AcDbPoint
 10
42.24112926010522
 20
21.71233833117724
 30
0.0
  0
ENDBLK
  5
11EC9
330
11EC7
100
AcDbEntity
  8
0
100
AcDbBlockEnd
  0
BLOCK
  5
11ED3
330
11ED2
100
AcDbEntity
  8
0
100
AcDbBlockBegin
  2
*D37
 70
     1
 10
0.0
 20
0.0
 30
0.0
  3
*D37
  1

  0
LINE
  5
12061
330
11ED2
100
AcDbEntity
  8
DIME
 62
     0
440
 16777216
370
    -2
100
AcDbLine
 10
44.90925452115341
 20
25.03583405462698
 30
0.0
 11
45.52325417472473
 21
23.55343979551629
 31
0.0
  0
LINE
  5
12062
330
11ED2
100
AcDbEntity
  8
DIME
 62
     0
440
 16777216
370
    -2
100
AcDbLine
 10
45.2234024187258
 20
23.62407211407062
 30
0.0
 11
42.23293225533713
 21
22.38543560893632
 31
0.0
  0
SOLID
  5
12063
330
11ED2
100
AcDbEntity
  8
DIME
 62
     0
440
 16777216
100
AcDbTrace
 10
45.20745789974037
 20
23.66256735306759
 30
0.0
 11
45.23934693771123
 21
23.58557687507364
 31
0.0
 12
45.45437385270766
 22
23.71973922798322
 32
0.0
 13
45.45437385270766
 23
23.71973922798322
 33
0.0
  0
SOLID
  5
12064
330
11ED2
100
AcDbEntity
  8
DIME
 62
     0
440
 16777216
100
AcDbTrace
 10
42.2169877363517
 20
22.42393084793329
 30
0.0
 11
42.24887677432256
 21
22.34694036993934
 31
0.0
 12
42.00196082135528
 22
22.28976849502371
 32
0.0
 13
42.00196082135528
 23
22.28976849502371
 33
0.0
  0
MTEXT
  5
12065
330
11ED2
100
AcDbEntity
  8
DIME
 62
     0
440
 16777216
100
AcDbMText
 10
43.64206693451013
 20
23.21262815208713
 30
0.0
 40
0.25
 41
0.0
 46
0.0
 71
     5
 72
     1
  1
\A1;F.W.
 11
0.9238857359274108
 21
0.3826684556504057
 31
0.0
 73
     1
 44
1.0
  0
POINT
  5
12066
330
11ED2
100
AcDbEntity
  8
DEFPOINTS
 62
     0
440
 16777216
100
AcDbPoint
 10
44.76575385028451
 20
25.38229120559976
 30
0.0
  0
POINT
  5
12067
330
11ED2
100
AcDbEntity
  8
DEFPOINTS
 62
     0
440
 16777216
100
AcDbPoint
 10
41.49603404748186
 20
23.511239778856
 30
0.0
  0
POINT
  5
12068
330
11ED2
100
AcDbEntity
  8
DEFPOINTS
 62
     0
440
 16777216
100
AcDbPoint
 10
42.00196082135528
 20
22.28976849502371
 30
0.0
  0
ENDBLK
  5
11ED4
330
11ED2
100
AcDbEntity
  8
0
100
AcDbBlockEnd
  0
BLOCK
  5
11EDE
330
11EDD
100
AcDbEntity
  8
0
100
AcDbBlockBegin
  2
*D38
 70
     1
 10
0.0
 20
0.0
 30
0.0
  3
*D38
  1

  0
LINE
  5
12024
330
11EDD
100
AcDbEntity
  8
DIME
 62
     0
440
 16777216
370
    -2
100
AcDbLine
 10
43.34610325066083
 20
24.27117399419653
 30
0.0
 11
43.67950848204095
 21
23.4662625628325
 31
0.0
  0
LINE
  5
12025
330
11EDD
100
AcDbEntity
  8
DIME
 62
     0
440
 16777216
370
    -2
100
AcDbLine
 10
44.9092601374214
 20
25.03583638090801
 30
0.0
 11
45.28409532224565
 21
24.13090419405068
 31
0.0
  0
LINE
  5
12026
330
11EDD
100
AcDbEntity
  8
DIME
 62
     0
440
 16777216
370
    -2
100
AcDbLine
 10
43.84159534734307
 20
23.72823173677581
 30
0.0
 11
44.98424242129212
 21
24.20153165181144
 31
0.0
  0
SOLID
  5
12027
330
11EDD
100
AcDbEntity
  8
DIME
 62
     0
440
 16777216
100
AcDbTrace
 10
43.82565020432785
 20
23.76672671729711
 30
0.0
 11
43.85754049035828
 21
23.68973675625451
 31
0.0
 12
43.61062546421524
 22
23.63256087868453
 32
0.0
 13
43.61062546421524
 23
23.63256087868453
 33
0.0
  0
SOLID
  5
12028
330
11EDD
100
AcDbEntity
  8
DIME
 62
     0
440
 16777216
100
AcDbTrace
 10
44.9682972782769
 20
24.24002663233274
 30
0.0
 11
45.00018756430733
 21
24.16303667129014
 31
0.0
 12
45.21521230441994
 22
24.29720250990271
 32
0.0
 13
45.21521230441994
 23
24.29720250990271
 33
0.0
  0
MTEXT
  5
12029
330
11EDD
100
AcDbEntity
  8
DIME
 62
     0
440
 16777216
100
AcDbMText
 10
44.32515098728693
 20
24.17677214164601
 30
0.0
 40
0.25
 41
0.0
 46
0.0
 71
     5
 72
     1
  1
\A1;1 3/4"
 11
0.923879532511286
 21
0.3826834323650914
 31
0.0
 73
     1
 44
1.0
  0
POINT
  5
1202A
330
11EDD
100
AcDbEntity
  8
DEFPOINTS
 62
     0
440
 16777216
100
AcDbPoint
 10
43.20259696352393
 20
24.61762881888826
 30
0.0
  0
POINT
  5
1202B
330
11EDD
100
AcDbEntity
  8
DEFPOINTS
 62
     0
440
 16777216
100
AcDbPoint
 10
44.76575385028449
 20
25.38229120559975
 30
0.0
  0
POINT
  5
1202C
330
11EDD
100
AcDbEntity
  8
DEFPOINTS
 62
     0
440
 16777216
100
AcDbPoint
 10
45.21521230441994
 20
24.29720250990271
 30
0.0
  0
ENDBLK
  5
11EDF
330
11EDD
100
AcDbEntity
  8
0
100
AcDbBlockEnd
  0
BLOCK
  5
11EEA
330
11EE9
100
AcDbEntity
  8
0
100
AcDbBlockBegin
  2
*D39
 70
     1
 10
0.0
 20
0.0
 30
0.0
  3
*D39
  1

  0
LINE
  5
12059
330
11EE9
100
AcDbEntity
  8
DIME
 62
     0
440
 16777216
370
    -2
100
AcDbLine
 10
43.47792132745468
 20
23.95676006872307
 30
0.0
 11
43.68084946850252
 21
23.46682573480023
 31
0.0
  0
LINE
  5
1205A
330
11EE9
100
AcDbEntity
  8
DIME
 62
     0
440
 16777216
370
    -2
100
AcDbLine
 10
43.38099771250358
 20
23.53745805335456
 30
0.0
 11
41.99376115343745
 21
22.96287220248985
 31
0.0
  0
SOLID
  5
1205B
330
11EE9
100
AcDbEntity
  8
DIME
 62
     0
440
 16777216
100
AcDbTrace
 10
43.36505319351815
 20
23.57595329235154
 30
0.0
 11
43.39694223148902
 21
23.49896281435759
 31
0.0
 12
43.61196914648544
 22
23.63312516726717
 32
0.0
 13
43.61196914648544
 23
23.63312516726717
 33
0.0
  0
SOLID
  5
1205C
330
11EE9
100
AcDbEntity
  8
DIME
 62
     0
440
 16777216
100
AcDbTrace
 10
41.977816634452
 20
23.00136744148683
 30
0.0
 11
42.00970567242288
 21
22.92437696349288
 31
0.0
 12
41.76278971945559
 22
22.86720508857725
 32
0.0
 13
41.76278971945559
 23
22.86720508857725
 33
0.0
  0
MTEXT
  5
1205D
330
11EE9
100
AcDbEntity
  8
DIME
 62
     0
440
 16777216
100
AcDbMText
 10
42.59961497082792
 20
23.46205699801921
 30
0.0
 40
0.25
 41
0.0
 46
0.0
 71
     5
 72
     1
  1
\A1;DLO
 11
0.9238857359274108
 21
0.3826684556504057
 31
0.0
 73
     1
 44
1.0
  0
POINT
  5
1205E
330
11EE9
100
AcDbEntity
  8
DEFPOINTS
 62
     0
440
 16777216
100
AcDbPoint
 10
43.33442065658577
 20
24.30321721969586
 30
0.0
  0
POINT
  5
1205F
330
11EE9
100
AcDbEntity
  8
DEFPOINTS
 62
     0
440
 16777216
100
AcDbPoint
 10
41.49603404748186
 20
23.511239778856
 30
0.0
  0
POINT
  5
12060
330
11EE9
100
AcDbEntity
  8
DEFPOINTS
 62
     0
440
 16777216
100
AcDbPoint
 10
41.76278971945559
 20
22.86720508857725
 30
0.0
  0
ENDBLK
  5
11EEB
330
11EE9
100
AcDbEntity
  8
0
100
AcDbBlockEnd
  0
BLOCK
  5
124ED
330
124E1
100
AcDbEntity
  8
0
100
AcDbBlockBegin
  2
Kawneer Logo English
 70
     0
 10
0.0
 20
0.0
 30
0.0
  3
Kawneer Logo English
  1

  0
HATCH
  5
128CE
330
124E1
100
AcDbEntity
  8
Kawneer Logo-English
100
AcDbHatch
 10
0.0
 20
0.0
 30
0.0
210
0.0
220
0.0
230
1.0
  2
SOLID
 70
     1
 71
     0
 91
        1
 92
        1
 93
       81
 72
     1
 10
0.2706169776412204
 20
0.0336337282279411
 11
0.2687512969786691
 21
0.0350329887248546
 72
     1
 10
0.2687512969786696
 20
0.0350329887248547
 11
0.2633408230572721
 21
0.039137486182467
 72
     1
 10
0.2633408230572729
 20
0.0391374861824669
 11
0.2550385441089194
 21
0.0453875164020133
 72
     1
 10
0.2550385441089191
 20
0.0453875164020132
 11
0.2442175962661241
 21
0.053596511317238
 72
     1
 10
0.2442175962661235
 20
0.0535965113172379
 11
0.2314376837276472
 21
0.0632980507625037
 72
     1
 10
0.2314376837276479
 20
0.0632980507625037
 11
0.2172585106922595
 21
0.0741189986052996
 72
     1
 10
0.2172585106922598
 20
0.0741189986052996
 11
0.2019599292593419
 21
0.0856862187131167
 72
     1
 10
0.201959929259341
 20
0.0856862187131167
 11
0.1862882116939105
 21
0.0976265749534437
 72
     1
 10
0.1862882116939102
 20
0.0976265749534437
 11
0.1706164941284813
 21
0.1095669311937706
 72
     1
 10
0.1706164941284811
 20
0.1095669311937709
 11
0.1553179126955632
 21
0.1211341513015875
 72
     1
 10
0.1553179126955642
 20
0.1211341513015876
 11
0.1411387396601757
 21
0.131955099144384
 72
     1
 10
0.1411387396601755
 20
0.1319550991443839
 11
0.1284521111548274
 21
0.141749922622777
 72
     1
 10
0.1284521111548278
 20
0.1417499226227768
 11
0.117631163312031
 21
0.1499589175380016
 72
     1
 10
0.1176311633120304
 20
0.1499589175380017
 11
0.1094221683968068
 21
0.1563022317906752
 72
     1
 10
0.1094221683968062
 20
0.1563022317906754
 11
0.1041049785085351
 21
0.1604067292482882
 72
     1
 10
0.1041049785085351
 20
0.1604067292482878
 11
0.1023325818791119
 21
0.1618992737783286
 72
     1
 10
0.1023325818791116
 20
0.1618992737783289
 11
0.1043848306079176
 21
0.1636716704077524
 72
     1
 10
0.1043848306079194
 20
0.1636716704077524
 11
0.1100751566286996
 21
0.1683358720641301
 72
     1
 10
0.1100751566286986
 20
0.1683358720641301
 11
0.1189371397758159
 21
0.1757053106812067
 72
     1
 10
0.1189371397758161
 20
0.1757053106812067
 11
0.1304110758505067
 21
0.1851269980270901
 72
     1
 10
0.1304110758505059
 20
0.1851269980270902
 11
0.1439372606540007
 21
0.1963210820023967
 72
     1
 10
0.1439372606540017
 20
0.1963210820023967
 11
0.1589559899875385
 21
0.2087278584083611
 72
     1
 10
0.1589559899875379
 20
0.2087278584083611
 11
0.1750941277186041
 21
0.2220674751456017
 72
     1
 10
0.1750941277186047
 20
0.2220674751456017
 11
0.19169868561531
 21
0.2358735120484796
 72
     1
 10
0.1916986856153105
 20
0.2358735120484796
 11
0.208303243512014
 21
0.2495862649182301
 72
     1
 10
0.2083032435120131
 20
0.2495862649182304
 11
0.2244413812430811
 21
0.2628325976223432
 72
     1
 10
0.2244413812430812
 20
0.2628325976223429
 11
0.239460110576618
 21
0.2753326580614352
 72
     1
 10
0.2394601105766174
 20
0.2753326580614351
 11
0.2529862953801122
 21
0.2864334580036143
 72
     1
 10
0.2529862953801132
 20
0.2864334580036143
 11
0.2643669474216756
 21
0.2958551453494973
 72
     1
 10
0.2643669474216757
 20
0.2958551453494973
 11
0.2731356465356649
 21
0.3031312999334466
 72
     1
 10
0.273135646535664
 20
0.3031312999334466
 11
0.2788259725564443
 21
0.3077955015898243
 72
     1
 10
0.278825972556445
 20
0.3077955015898246
 11
0.2807849372521245
 21
0.3094746141861208
 72
     1
 10
0.2807849372521249
 20
0.3094746141861205
 11
0.2798520969208501
 21
0.3094746141861205
 72
     1
 10
0.2798520969208496
 20
0.3094746141861205
 11
0.2769602918938953
 21
0.3095678982192478
 72
     1
 10
0.2769602918938943
 20
0.3095678982192481
 11
0.2724826583037715
 21
0.3095678982192481
 72
     1
 10
0.2724826583037729
 20
0.3095678982192481
 11
0.2666057642167363
 21
0.3095678982192481
 72
     1
 10
0.266605764216735
 20
0.3095678982192481
 11
0.2597027457652953
 21
0.3095678982192481
 72
     1
 10
0.2597027457652956
 20
0.3095678982192481
 11
0.2519601710157094
 21
0.3095678982192481
 72
     1
 10
0.2519601710157104
 20
0.3095678982192481
 11
0.2437511761004851
 21
0.3095678982192481
 72
     1
 10
0.243751176100484
 20
0.3095678982192481
 11
0.2351690450527495
 21
0.3095678982192481
 72
     1
 10
0.2351690450527495
 20
0.3095678982192481
 11
0.2266801980381413
 21
0.3095678982192481
 72
     1
 10
0.2266801980381423
 20
0.3095678982192481
 11
0.2183779190897905
 21
0.3094746141861208
 72
     1
 10
0.2183779190897899
 20
0.3094746141861205
 11
0.2106353443402037
 21
0.3094746141861205
 72
     1
 10
0.2106353443402029
 20
0.3094746141861205
 11
0.2037323258887632
 21
0.3094746141861205
 72
     1
 10
0.203732325888764
 20
0.3094746141861205
 11
0.1978554318017273
 21
0.3094746141861205
 72
     1
 10
0.1978554318017278
 20
0.3094746141861205
 11
0.1932845141784786
 21
0.3094746141861205
 72
     1
 10
0.1932845141784787
 20
0.3094746141861205
 11
0.1903927091515244
 21
0.3094746141861205
 72
     1
 10
0.1903927091515234
 20
0.3094746141861205
 11
0.1893665847871204
 21
0.3094746141861205
 72
     1
 10
0.1893665847871206
 20
0.3094746141861205
 11
0.1879673242902067
 21
0.3077955015898243
 72
     1
 10
0.1879673242902076
 20
0.3077955015898246
 11
0.1841426789319786
 21
0.3030380159003196
 72
     1
 10
0.1841426789319787
 20
0.3030380159003192
 11
0.1780792167786874
 21
0.29576186131637
 72
     1
 10
0.1780792167786873
 20
0.29576186131637
 11
0.170243357995973
 21
0.2862468899373593
 72
     1
 10
0.170243357995973
 20
0.2862468899373593
 11
0.1610082387163447
 21
0.2750528059620528
 72
     1
 10
0.1610082387163438
 20
0.2750528059620528
 11
0.1507469950723126
 21
0.2624594614898328
 72
     1
 10
0.1507469950723133
 20
0.2624594614898328
 11
0.1396461951301336
 21
0.2491198447525922
 72
     1
 10
0.1396461951301333
 20
0.2491198447525922
 11
0.1282655430885727
 21
0.2352205238165866
 72
     1
 10
0.1282655430885726
 20
0.2352205238165868
 11
0.1168848910470102
 21
0.2214144869137089
 72
     1
 10
0.1168848910470102
 20
0.2214144869137087
 11
0.1058773751379587
 21
0.2079815861433408
 72
     1
 10
0.105877375137958
 20
0.2079815861433408
 11
0.0955228474608004
 21
0.1954815257042486
 72
     1
 10
0.0955228474608019
 20
0.1954815257042488
 11
0.0862877281811736
 21
0.1842874417289424
 72
     1
 10
0.0862877281811727
 20
0.1842874417289424
 11
0.0784518693984583
 21
0.1747724703499316
 72
     1
 10
0.0784518693984584
 20
0.1747724703499314
 11
0.0723884072451672
 21
0.1674963157659821
 72
     1
 10
0.0723884072451671
 20
0.1674963157659822
 11
0.0685637618869363
 21
0.1627388300764767
 72
     1
 10
0.0685637618869364
 20
0.1627388300764767
 11
0.0671645013900242
 21
0.1611530015133082
 72
     1
 10
0.0671645013900251
 20
0.1611530015133082
 11
0.0680040576881734
 21
0.1596604569832674
 72
     1
 10
0.0680040576881726
 20
0.1596604569832674
 11
0.0704294425494878
 21
0.1556492435587824
 72
     1
 10
0.0704294425494871
 20
0.1556492435587824
 11
0.0742540879077179
 21
0.1493059293061089
 72
     1
 10
0.0742540879077192
 20
0.1493059293061089
 11
0.0791048576303511
 21
0.1411902184240116
 72
     1
 10
0.0791048576303508
 20
0.1411902184240116
 11
0.0848884676842594
 21
0.1314886789787458
 72
     1
 10
0.0848884676842596
 20
0.1314886789787459
 11
0.0913250659700619
 21
0.1207610151690772
 72
     1
 10
0.0913250659700613
 20
0.1207610151690775
 11
0.0982280844214992
 21
0.1091937950612604
 72
     1
 10
0.0982280844214985
 20
0.1091937950612603
 11
0.1053176709391927
 21
0.0973467228540611
 72
     1
 10
0.105317670939193
 20
0.0973467228540612
 11
0.1124072574568872
 21
0.0854996506468619
 72
     1
 10
0.1124072574568871
 20
0.0854996506468617
 11
0.1193102759083267
 21
0.0739324305390446
 72
     1
 10
0.1193102759083278
 20
0.0739324305390448
 11
0.1257468741941283
 21
0.0632047667293762
 72
     1
 10
0.1257468741941277
 20
0.063204766729376
 11
0.1315304842480362
 21
0.0535032272841102
 72
     1
 10
0.1315304842480365
 20
0.0535032272841104
 11
0.1363812539706702
 21
0.0453875164020132
 72
     1
 10
0.1363812539706699
 20
0.0453875164020132
 11
0.1402058993288989
 21
0.0391374861824667
 72
     1
 10
0.1402058993288988
 20
0.0391374861824669
 11
0.1426312841902157
 21
0.0350329887248546
 72
     1
 10
0.1426312841902164
 20
0.0350329887248547
 11
0.1434708404883648
 21
0.0336337282279412
 72
     1
 10
0.143470840488364
 20
0.0336337282279411
 11
0.2706169776412211
 21
0.0336337282279411
 97
        0
 75
     0
 76
     1
 98
        1
 10
-0.3743130907707726
 20
-0.2500502867693841
450
        0
451
        0
460
0.0
461
0.0
452
        0
462
0.0
453
        0
470

1001
ACAD
1010
0.0
1020
0.0
1030
0.0
  0
HATCH
  5
128CF
330
124E1
100
AcDbEntity
  8
Kawneer Logo-English
100
AcDbHatch
 10
0.0
 20
0.0
 30
0.0
210
0.0
220
0.0
230
1.0
  2
SOLID
 70
     1
 71
     0
 91
        1
 92
        1
 93
       18
 72
     1
 10
0.0001865656044393
 20
0.2563959993365415
 11
-0.0000000024618153
 21
0.113671428651383
 72
     1
 10
-0.0000000024618159
 20
0.1136714286513832
 11
0.0012126899688416
 21
0.1152572572145516
 72
     1
 10
0.0012126899688421
 20
0.1152572572145516
 11
0.0045709151614355
 21
0.1197348908046738
 72
     1
 10
0.004570915161435
 20
0.119734890804674
 11
0.0098881050497044
 21
0.1268244773223682
 72
     1
 10
0.0098881050497044
 20
0.1268244773223682
 11
0.0166978394680158
 21
0.1359663125688683
 72
     1
 10
0.016697839468016
 20
0.1359663125688683
 11
0.0248135503501131
 21
0.1467872604116651
 72
     1
 10
0.024813550350113
 20
0.1467872604116652
 11
0.0338621015634867
 21
0.1588209006851195
 72
     1
 10
0.0338621015634872
 20
0.1588209006851194
 11
0.0434703569756247
 21
0.1716940972567221
 72
     1
 10
0.0434703569756247
 20
0.1716940972567224
 11
0.0534517485202732
 21
0.1850337139939626
 72
     1
 10
0.0534517485202724
 20
0.1850337139939624
 11
0.0634331400649208
 21
0.1983733307312025
 72
     1
 10
0.0634331400649222
 20
0.1983733307312024
 11
0.0730413954770597
 21
0.2112465273028051
 72
     1
 10
0.0730413954770595
 20
0.2112465273028053
 11
0.0820899466904331
 21
0.2233734516093873
 72
     1
 10
0.0820899466904321
 20
0.2233734516093873
 11
0.0902056575725293
 21
0.2341943994521837
 72
     1
 10
0.0902056575725308
 20
0.2341943994521837
 11
0.0970153919908422
 21
0.2433362346986839
 72
     1
 10
0.0970153919908405
 20
0.2433362346986839
 11
0.1022392978459834
 21
0.2503325371832507
 72
     1
 10
0.1022392978459843
 20
0.2503325371832508
 11
0.1056908070717041
 21
0.2549034548065008
 72
     1
 10
0.1056908070717046
 20
0.254903454806501
 11
0.1069034995023621
 21
0.2564892833696694
 72
     1
 10
0.1069034995023625
 20
0.2564892833696695
 11
0.0001865656044399
 21
0.2563959993365418
 97
        0
 75
     0
 76
     1
 98
        1
 10
-0.3743130907707726
 20
-0.2500502867693841
450
        0
451
        0
460
0.0
461
0.0
452
        0
462
0.0
453
        0
470

1001
ACAD
1010
0.0
1020
0.0
1030
0.0
  0
HATCH
  5
128D0
330
124E1
100
AcDbEntity
  8
Kawneer Logo-English
100
AcDbHatch
 10
0.0
 20
0.0
 30
0.0
210
0.0
220
0.0
230
1.0
  2
SOLID
 70
     1
 71
     0
 91
        2
 92
       16
 93
       76
 72
     1
 10
1.358402087941634
 20
0.1650709309046659
 11
1.358402087941634
 21
0.16796273593162
 72
     1
 10
1.358402087941634
 20
0.1679627359316202
 11
1.358402087941634
 21
0.1729067896873803
 72
     1
 10
1.358402087941634
 20
0.1729067896873803
 11
1.358402087941634
 21
0.1791568199069267
 72
     1
 10
1.358402087941634
 20
0.1791568199069267
 11
1.358402087941634
 21
0.1861531223914932
 72
     1
 10
1.358402087941634
 20
0.186153122391493
 11
1.358402087941634
 21
0.1931494248760595
 72
     1
 10
1.358402087941634
 20
0.1931494248760596
 11
1.358402087941634
 21
0.1994927391287338
 72
     1
 10
1.358402087941634
 20
0.1994927391287336
 11
1.358402087941634
 21
0.2044367928844937
 72
     1
 10
1.358402087941634
 20
0.2044367928844937
 11
1.358402087941634
 21
0.2072353138783208
 72
     1
 10
1.358402087941634
 20
0.2072353138783208
 11
1.359894632471676
 21
0.2072353138783208
 72
     1
 10
1.359894632471676
 20
0.2072353138783208
 11
1.362693153465502
 21
0.2072353138783208
 72
     1
 10
1.362693153465502
 20
0.2072353138783208
 11
1.366424514790605
 21
0.2072353138783208
 72
     1
 10
1.366424514790606
 20
0.2072353138783208
 11
1.371088716446983
 21
0.2072353138783208
 72
     1
 10
1.371088716446982
 20
0.2072353138783208
 11
1.376405906335254
 21
0.2072353138783208
 72
     1
 10
1.376405906335254
 20
0.2072353138783208
 11
1.382282800422289
 21
0.2072353138783208
 72
     1
 10
1.38228280042229
 20
0.2072353138783208
 11
1.388346262575581
 21
0.2072353138783208
 72
     1
 10
1.388346262575579
 20
0.2072353138783208
 11
1.394596292795125
 21
0.2072353138783208
 72
     1
 10
1.394596292795125
 20
0.2072353138783208
 11
1.400753038981545
 21
0.2072353138783208
 72
     1
 10
1.400753038981546
 20
0.2072353138783208
 11
1.406723217101709
 21
0.2072353138783208
 72
     1
 10
1.406723217101708
 20
0.2072353138783208
 11
1.412320259089362
 21
0.2072353138783208
 72
     1
 10
1.412320259089362
 20
0.2072353138783208
 11
1.417264312845122
 21
0.2072353138783208
 72
     1
 10
1.417264312845123
 20
0.2072353138783208
 11
1.421368810302735
 21
0.2072353138783208
 72
     1
 10
1.421368810302734
 20
0.2072353138783208
 11
1.424540467429071
 21
0.2072353138783208
 72
     1
 10
1.424540467429072
 20
0.2072353138783208
 11
1.426592716157878
 21
0.2072353138783208
 72
     1
 10
1.426592716157878
 20
0.2072353138783208
 11
1.427338988422898
 21
0.2072353138783208
 72
     1
 10
1.427338988422898
 20
0.2072353138783208
 11
1.430977065714873
 21
0.207142029845193
 72
     1
 10
1.430977065714872
 20
0.207142029845193
 11
1.434335290907465
 21
0.2068621777458102
 72
     1
 10
1.434335290907465
 20
0.2068621777458102
 11
1.435921119470633
 21
0.2066756096795552
 72
     1
 10
1.435921119470633
 20
0.206675609679555
 11
1.437413664000673
 21
0.2063957575801723
 72
     1
 10
1.437413664000674
 20
0.2063957575801723
 11
1.438906208530714
 21
0.2061159054807895
 72
     1
 10
1.438906208530714
 20
0.2061159054807898
 11
1.440398753060756
 21
0.2056494853151523
 72
     1
 10
1.440398753060756
 20
0.2056494853151521
 11
1.441704729524542
 21
0.2050897811163865
 72
     1
 10
1.441704729524542
 20
0.2050897811163866
 11
1.443010705988328
 21
0.204530076917621
 72
     1
 10
1.443010705988329
 20
0.204530076917621
 11
1.444223398418986
 21
0.2036905206194736
 72
     1
 10
1.444223398418985
 20
0.2036905206194736
 11
1.445436090849643
 21
0.2028509643213252
 72
     1
 10
1.445436090849643
 20
0.2028509643213252
 11
1.446555499247174
 21
0.2018248399569224
 72
     1
 10
1.446555499247173
 20
0.2018248399569223
 11
1.447581623611576
 21
0.2007054315593917
 72
     1
 10
1.447581623611578
 20
0.2007054315593915
 11
1.448607747975981
 21
0.1993061710624781
 72
     1
 10
1.448607747975981
 20
0.1993061710624781
 11
1.449540588307258
 21
0.1978136265324374
 72
     1
 10
1.449540588307256
 20
0.1978136265324373
 11
1.450380144605403
 21
0.1961345139361415
 72
     1
 10
1.450380144605404
 20
0.1961345139361415
 11
1.451126416870426
 21
0.1944554013398453
 72
     1
 10
1.451126416870426
 20
0.1944554013398454
 11
1.451592837036063
 21
0.1929628568098046
 72
     1
 10
1.451592837036062
 20
0.1929628568098046
 11
1.451965973168573
 21
0.1913770282466361
 72
     1
 10
1.451965973168574
 20
0.1913770282466361
 11
1.452245825267955
 21
0.1899777677497231
 72
     1
 10
1.452245825267954
 20
0.1899777677497231
 11
1.452432393334211
 21
0.188671791285937
 72
     1
 10
1.452432393334211
 20
0.1886717912859369
 11
1.452432393334211
 21
0.1874590988552789
 72
     1
 10
1.452432393334211
 20
0.1874590988552789
 11
1.452525677367338
 21
0.1863396904577482
 72
     1
 10
1.452525677367337
 20
0.1863396904577481
 11
1.452432393334211
 21
0.1844740097951972
 72
     1
 10
1.452432393334211
 20
0.1844740097951974
 11
1.452245825267955
 21
0.1827948971989012
 72
     1
 10
1.452245825267954
 20
0.1827948971989009
 11
1.451872689135445
 21
0.1810225005694773
 72
     1
 10
1.451872689135446
 20
0.1810225005694774
 11
1.451406268969809
 21
0.1794366720063093
 72
     1
 10
1.451406268969809
 20
0.1794366720063094
 11
1.450846564771043
 21
0.1779441274762682
 72
     1
 10
1.450846564771041
 20
0.1779441274762681
 11
1.450100292506021
 21
0.1764515829462274
 72
     1
 10
1.450100292506023
 20
0.1764515829462275
 11
1.449260736207875
 21
0.1750523224493141
 72
     1
 10
1.449260736207873
 20
0.1750523224493139
 11
1.448327895876597
 21
0.1737463459855283
 72
     1
 10
1.448327895876596
 20
0.1737463459855281
 11
1.44702191941281
 21
0.1723470854886151
 72
     1
 10
1.447021919412811
 20
0.1723470854886151
 11
1.445715942949025
 21
0.1711343930579568
 72
     1
 10
1.445715942949026
 20
0.1711343930579568
 11
1.444316682452114
 21
0.1700149846604262
 72
     1
 10
1.444316682452114
 20
0.1700149846604259
 11
1.442824137922072
 21
0.168988860296023
 72
     1
 10
1.442824137922072
 20
0.168988860296023
 11
1.441238309358904
 21
0.1682425880310024
 72
     1
 10
1.441238309358902
 20
0.1682425880310024
 11
1.439559196762608
 21
0.1674963157659821
 72
     1
 10
1.439559196762608
 20
0.1674963157659822
 11
1.437880084166311
 21
0.1669366115672166
 72
     1
 10
1.437880084166311
 20
0.1669366115672167
 11
1.436107687536888
 21
0.1664701914015788
 72
     1
 10
1.436107687536888
 20
0.1664701914015789
 11
1.434242006874337
 21
0.166003771235941
 72
     1
 10
1.434242006874337
 20
0.1660037712359412
 11
1.432376326211786
 21
0.1657239191365588
 72
     1
 10
1.432376326211785
 20
0.1657239191365585
 11
1.430417361516107
 21
0.1655373510703035
 72
     1
 10
1.430417361516108
 20
0.1655373510703037
 11
1.428458396820429
 21
0.1653507830040482
 72
     1
 10
1.428458396820428
 20
0.1653507830040482
 11
1.424353899362817
 21
0.1651642149377932
 72
     1
 10
1.424353899362817
 20
0.1651642149377932
 11
1.420156117872077
 21
0.1650709309046658
 72
     1
 10
1.420156117872076
 20
0.1650709309046659
 11
1.41773073301076
 21
0.1650709309046659
 72
     1
 10
1.417730733010761
 20
0.1650709309046659
 11
1.411107566658704
 21
0.1650709309046659
 72
     1
 10
1.411107566658702
 20
0.1650709309046659
 11
1.401779163345947
 21
0.1650709309046659
 72
     1
 10
1.401779163345949
 20
0.1650709309046659
 11
1.390958215503152
 21
0.1650709309046659
 72
     1
 10
1.390958215503152
 20
0.1650709309046659
 11
1.379950699594101
 21
0.1650709309046659
 72
     1
 10
1.379950699594099
 20
0.1650709309046659
 11
1.369969308049451
 21
0.1650709309046659
 72
     1
 10
1.369969308049451
 20
0.1650709309046659
 11
1.362320017332992
 21
0.1650709309046659
 72
     1
 10
1.362320017332992
 20
0.1650709309046659
 11
1.358402087941635
 21
0.1650709309046659
 97
        0
 92
        1
 93
      107
 72
     1
 10
1.443756978253348
 20
0.1485596570410883
 11
1.446928635379685
 21
0.1492126452729816
 72
     1
 10
1.446928635379685
 20
0.1492126452729817
 11
1.449540588307256
 21
0.1498656335048746
 72
     1
 10
1.449540588307256
 20
0.1498656335048745
 11
1.451872689135445
 21
0.1506119057698948
 72
     1
 10
1.451872689135446
 20
0.1506119057698946
 11
1.45401822189738
 21
0.1514514620680426
 72
     1
 10
1.45401822189738
 20
0.1514514620680425
 11
1.455883902559929
 21
0.1521977343330632
 72
     1
 10
1.455883902559929
 20
0.1521977343330631
 11
1.457563015156225
 21
0.1530372906312111
 72
     1
 10
1.457563015156225
 20
0.1530372906312111
 11
1.459148843719394
 21
0.1539701309624869
 72
     1
 10
1.459148843719394
 20
0.1539701309624866
 11
1.460641388249434
 21
0.1549029712937624
 72
     1
 10
1.460641388249434
 20
0.1549029712937622
 11
1.462133932779476
 21
0.155835811625038
 72
     1
 10
1.462133932779476
 20
0.155835811625038
 11
1.463439909243262
 21
0.1568619359894408
 72
     1
 10
1.463439909243262
 20
0.1568619359894408
 11
1.464745885707048
 21
0.1579813443869714
 72
     1
 10
1.464745885707047
 20
0.1579813443869716
 11
1.465865294104579
 21
0.1591007527845022
 72
     1
 10
1.465865294104579
 20
0.1591007527845025
 11
1.466984702502109
 21
0.1602201611820331
 72
     1
 10
1.466984702502108
 20
0.1602201611820328
 11
1.468010826866511
 21
0.1613395695795634
 72
     1
 10
1.468010826866511
 20
0.1613395695795637
 11
1.468943667197788
 21
0.1625522620102216
 72
     1
 10
1.468943667197788
 20
0.1625522620102216
 11
1.469876507529063
 21
0.1636716704077522
 72
     1
 10
1.469876507529063
 20
0.1636716704077524
 11
1.470622779794084
 21
0.1648843628384107
 72
     1
 10
1.470622779794084
 20
0.1648843628384107
 11
1.471462336092232
 21
0.1661903393021964
 72
     1
 10
1.471462336092232
 20
0.1661903393021967
 11
1.472115324324125
 21
0.1674030317328546
 72
     1
 10
1.472115324324124
 20
0.1674030317328546
 11
1.472768312556016
 21
0.1686157241635125
 72
     1
 10
1.472768312556017
 20
0.1686157241635125
 11
1.473328016754783
 21
0.1699217006272986
 72
     1
 10
1.473328016754782
 20
0.1699217006272989
 11
1.47379443692042
 21
0.1711343930579568
 72
     1
 10
1.47379443692042
 20
0.1711343930579568
 11
1.474260857086057
 21
0.1724403695217425
 72
     1
 10
1.474260857086058
 20
0.1724403695217424
 11
1.474727277251697
 21
0.1736530619524008
 72
     1
 10
1.474727277251697
 20
0.173653061952401
 11
1.475380265483589
 21
0.1760784468137175
 72
     1
 10
1.475380265483588
 20
0.1760784468137173
 11
1.475846685649225
 21
0.1785038316750338
 72
     1
 10
1.475846685649226
 20
0.1785038316750335
 11
1.476219821781737
 21
0.1808359325032223
 72
     1
 10
1.476219821781738
 20
0.1808359325032223
 11
1.47649967388112
 21
0.1830747492982838
 72
     1
 10
1.47649967388112
 20
0.1830747492982838
 11
1.476592957914248
 21
0.1851269980270901
 72
     1
 10
1.476592957914248
 20
0.1851269980270902
 11
1.476686241947374
 21
0.1870859627227688
 72
     1
 10
1.476686241947375
 20
0.1870859627227687
 11
1.476592957914249
 21
0.1888583593521923
 72
     1
 10
1.476592957914248
 20
0.1888583593521922
 11
1.476499673881119
 21
0.1906307559816158
 72
     1
 10
1.47649967388112
 20
0.1906307559816159
 11
1.476406389847991
 21
0.1924031526110394
 72
     1
 10
1.476406389847991
 20
0.1924031526110394
 11
1.476126537748608
 21
0.1940822652073352
 72
     1
 10
1.476126537748608
 20
0.1940822652073352
 11
1.475846685649226
 21
0.195761377803631
 72
     1
 10
1.475846685649226
 20
0.1957613778036309
 11
1.475566833549843
 21
0.1974404903999272
 72
     1
 10
1.475566833549843
 20
0.1974404903999272
 11
1.475100413384206
 21
0.1990263189630953
 72
     1
 10
1.475100413384205
 20
0.1990263189630952
 11
1.474633993218568
 21
0.2006121475262637
 72
     1
 10
1.474633993218568
 20
0.2006121475262639
 11
1.47416757305293
 21
0.2021046920563051
 72
     1
 10
1.474167573052932
 20
0.2021046920563049
 11
1.473514584821038
 21
0.2035972365863457
 72
     1
 10
1.473514584821037
 20
0.2035972365863459
 11
1.472954880622271
 21
0.2050897811163867
 72
     1
 10
1.472954880622272
 20
0.2050897811163866
 11
1.472208608357252
 21
0.2064890416133
 72
     1
 10
1.472208608357252
 20
0.2064890416133001
 11
1.471462336092232
 21
0.2078883021102135
 72
     1
 10
1.471462336092232
 20
0.2078883021102136
 11
1.470622779794083
 21
0.2091942785739993
 72
     1
 10
1.470622779794084
 20
0.2091942785739991
 11
1.469783223495935
 21
0.2105002550377848
 72
     1
 10
1.469783223495934
 20
0.2105002550377851
 11
1.468850383164659
 21
0.2118062315015707
 72
     1
 10
1.468850383164661
 20
0.2118062315015709
 11
1.467917542833386
 21
0.2130189239322288
 72
     1
 10
1.467917542833385
 20
0.2130189239322289
 11
1.466891418468982
 21
0.2141383323297595
 72
     1
 10
1.466891418468982
 20
0.2141383323297595
 11
1.465772010071451
 21
0.2153510247604178
 72
     1
 10
1.46577201007145
 20
0.215351024760418
 11
1.464652601673919
 21
0.2163771491248209
 72
     1
 10
1.46465260167392
 20
0.2163771491248209
 11
1.463533193276389
 21
0.2174032734892238
 72
     1
 10
1.463533193276389
 20
0.2174032734892238
 11
1.462227216812603
 21
0.2184293978536266
 72
     1
 10
1.462227216812602
 20
0.2184293978536266
 11
1.461014524381945
 21
0.2193622381849024
 72
     1
 10
1.461014524381946
 20
0.2193622381849023
 11
1.459615263885032
 21
0.2202950785161781
 72
     1
 10
1.459615263885031
 20
0.2202950785161782
 11
1.458309287421245
 21
0.2211346348143262
 72
     1
 10
1.458309287421246
 20
0.221134634814326
 11
1.456816742891206
 21
0.221974191112474
 72
     1
 10
1.456816742891206
 20
0.2219741911124738
 11
1.455417482394292
 21
0.2227204633774945
 72
     1
 10
1.455417482394291
 20
0.2227204633774944
 11
1.453831653831122
 21
0.2233734516093874
 72
     1
 10
1.453831653831123
 20
0.2233734516093873
 11
1.452339109301082
 21
0.2240264398412803
 72
     1
 10
1.452339109301082
 20
0.2240264398412803
 11
1.450659996704785
 21
0.2245861440400459
 72
     1
 10
1.450659996704787
 20
0.2245861440400457
 11
1.44907416814162
 21
0.2251458482388108
 72
     1
 10
1.449074168141619
 20
0.2251458482388109
 11
1.447301771512194
 21
0.2256122684044489
 72
     1
 10
1.447301771512194
 20
0.2256122684044488
 11
1.445249522783388
 21
0.2261719726032139
 72
     1
 10
1.445249522783388
 20
0.226171972603214
 11
1.44329055808771
 21
0.2265451087357246
 72
     1
 10
1.443290558087712
 20
0.2265451087357244
 11
1.441145025325778
 21
0.2269182448682345
 72
     1
 10
1.441145025325776
 20
0.2269182448682345
 11
1.438906208530714
 21
0.2271980969676173
 72
     1
 10
1.438906208530714
 20
0.2271980969676173
 11
1.436387539636271
 21
0.2273846650338724
 72
     1
 10
1.436387539636271
 20
0.2273846650338724
 11
1.433495734609316
 21
0.2275712331001274
 72
     1
 10
1.433495734609317
 20
0.2275712331001274
 11
1.430044225383597
 21
0.2276645171332552
 72
     1
 10
1.430044225383597
 20
0.2276645171332549
 11
1.42612629599224
 21
0.2277578011663822
 72
     1
 10
1.42612629599224
 20
0.2277578011663825
 11
1.426033011959112
 21
0.2277578011663825
 72
     1
 10
1.426033011959111
 20
0.2277578011663825
 11
1.33489451159349
 21
0.2277578011663825
 72
     1
 10
1.334894511593491
 20
0.2277578011663825
 11
1.334894511593491
 21
0.0926825211976832
 72
     1
 10
1.334894511593491
 20
0.0926825211976832
 11
1.358588656007891
 21
0.0926825211976832
 72
     1
 10
1.358588656007891
 20
0.0926825211976832
 11
1.358588656007891
 21
0.0947347699264896
 72
     1
 10
1.358588656007891
 20
0.0947347699264896
 11
1.358588656007891
 21
0.1001452438478876
 72
     1
 10
1.358588656007891
 20
0.1001452438478875
 11
1.358588656007891
 21
0.1079811026306024
 72
     1
 10
1.358588656007891
 20
0.1079811026306024
 11
1.358588656007891
 21
0.1170296538439752
 72
     1
 10
1.358588656007891
 20
0.1170296538439753
 11
1.358588656007891
 21
0.1262647731236032
 72
     1
 10
1.358588656007891
 20
0.1262647731236031
 11
1.358588656007891
 21
0.1347536201382103
 72
     1
 10
1.358588656007891
 20
0.1347536201382104
 11
1.358588656007891
 21
0.1412835024571394
 72
     1
 10
1.358588656007891
 20
0.1412835024571393
 11
1.358588656007891
 21
0.1448282957159864
 72
     1
 10
1.358588656007891
 20
0.1448282957159865
 11
1.362320017332992
 21
0.1448282957159865
 72
     1
 10
1.362320017332992
 20
0.1448282957159865
 11
1.369409603850688
 21
0.1448282957159865
 72
     1
 10
1.369409603850688
 20
0.1448282957159865
 11
1.378738007163443
 21
0.1448282957159865
 72
     1
 10
1.378738007163443
 20
0.1448282957159865
 11
1.388999250807475
 21
0.1448282957159865
 72
     1
 10
1.388999250807473
 20
0.1448282957159865
 11
1.399260494451505
 21
0.1448282957159865
 72
     1
 10
1.399260494451506
 20
0.1448282957159865
 11
1.408215761631749
 21
0.1448282957159865
 72
     1
 10
1.408215761631748
 20
0.1448282957159865
 11
1.414745643950677
 21
0.1448282957159865
 72
     1
 10
1.414745643950678
 20
0.1448282957159865
 11
1.41773073301076
 21
0.1448282957159865
 72
     1
 10
1.417730733010761
 20
0.1448282957159865
 11
1.420062833838949
 21
0.1420297747221594
 72
     1
 10
1.420062833838949
 20
0.1420297747221597
 11
1.425193455660966
 21
0.1359663125688683
 72
     1
 10
1.425193455660965
 20
0.1359663125688683
 11
1.432283042178659
 21
0.1275707495873888
 72
     1
 10
1.432283042178659
 20
0.1275707495873886
 11
1.440305469027628
 21
0.1180557782083779
 72
     1
 10
1.440305469027629
 20
0.1180557782083781
 11
1.448234611843471
 21
0.1087273748956225
 72
     1
 10
1.448234611843471
 20
0.1087273748956225
 11
1.455044346261782
 21
0.1006116640135252
 72
     1
 10
1.455044346261782
 20
0.1006116640135252
 11
1.459895115984414
 21
0.0948280539596167
 72
     1
 10
1.459895115984414
 20
0.0948280539596169
 11
1.461760796646965
 21
0.0926825211976832
 72
     1
 10
1.461760796646967
 20
0.0926825211976832
 11
1.49254452757906
 21
0.0926825211976832
 72
     1
 10
1.492544527579059
 20
0.0926825211976832
 11
1.490678846916508
 21
0.0948280539596169
 72
     1
 10
1.490678846916508
 20
0.0948280539596169
 11
1.48564150912762
 21
0.100518379980398
 72
     1
 10
1.48564150912762
 20
0.1005183799803981
 11
1.478458638576797
 21
0.1088206589287502
 72
     1
 10
1.478458638576798
 20
0.1088206589287502
 11
1.470063075595318
 21
0.1183356303077609
 72
     1
 10
1.470063075595317
 20
0.118335630307761
 11
1.461480944547582
 21
0.1282237378192818
 72
     1
 10
1.461480944547582
 20
0.1282237378192818
 11
1.453551801731739
 21
0.1372722890326546
 72
     1
 10
1.45355180173174
 20
0.1372722890326546
 11
1.447395055545323
 21
0.1444551595834761
 72
     1
 10
1.447395055545323
 20
0.1444551595834759
 11
1.443756978253349
 21
0.1485596570410882
 97
        0
 75
     0
 76
     1
 98
        1
 10
-0.3743130907707726
 20
-0.2500502867693841
450
        0
451
        0
460
0.0
461
0.0
452
        0
462
0.0
453
        0
470

1001
ACAD
1010
0.0
1020
0.0
1030
0.0
  0
HATCH
  5
128D1
330
124E1
100
AcDbEntity
  8
Kawneer Logo-English
100
AcDbHatch
 10
0.0
 20
0.0
 30
0.0
210
0.0
220
0.0
230
1.0
  2
SOLID
 70
     1
 71
     0
 91
        1
 92
        1
 93
       87
 72
     1
 10
1.205602841678699
 20
0.1525708704655737
 11
1.207468522341251
 21
0.1525708704655737
 72
     1
 10
1.207468522341252
 20
0.1525708704655737
 11
1.211199883666355
 21
0.1525708704655737
 72
     1
 10
1.211199883666355
 20
0.1525708704655737
 11
1.216517073554626
 21
0.1525708704655737
 72
     1
 10
1.216517073554626
 20
0.1525708704655737
 11
1.223046955873555
 21
0.1525708704655737
 72
     1
 10
1.223046955873553
 20
0.1525708704655737
 11
1.230602962556885
 21
0.1525708704655737
 72
     1
 10
1.230602962556885
 20
0.1525708704655737
 11
1.238998525538365
 21
0.1525708704655737
 72
     1
 10
1.238998525538365
 20
0.1525708704655737
 11
1.247767224652354
 21
0.1525708704655737
 72
     1
 10
1.247767224652355
 20
0.1525708704655737
 11
1.256815775865728
 21
0.1525708704655737
 72
     1
 10
1.256815775865729
 20
0.1525708704655737
 11
1.265771043045974
 21
0.1525708704655737
 72
     1
 10
1.265771043045973
 20
0.1525708704655737
 11
1.274446458126836
 21
0.1525708704655737
 72
     1
 10
1.274446458126837
 20
0.1525708704655737
 11
1.282562169008935
 21
0.1525708704655737
 72
     1
 10
1.282562169008935
 20
0.1525708704655737
 11
1.289745039559756
 21
0.1525708704655737
 72
     1
 10
1.289745039559755
 20
0.1525708704655737
 11
1.295808501713046
 21
0.1525708704655737
 72
     1
 10
1.295808501713046
 20
0.1525708704655737
 11
1.300472703369423
 21
0.1525708704655737
 72
     1
 10
1.300472703369423
 20
0.1525708704655737
 11
1.303457792429505
 21
0.1525708704655737
 72
     1
 10
1.303457792429505
 20
0.1525708704655737
 11
1.304483916793908
 21
0.1525708704655737
 72
     1
 10
1.304483916793908
 20
0.1525708704655737
 11
1.304483916793908
 21
0.1730000737205081
 72
     1
 10
1.304483916793908
 20
0.1730000737205078
 11
1.303457792429505
 21
0.1730000737205078
 72
     1
 10
1.303457792429505
 20
0.1730000737205078
 11
1.300472703369423
 21
0.1730000737205078
 72
     1
 10
1.300472703369423
 20
0.1730000737205078
 11
1.295808501713045
 21
0.1730000737205078
 72
     1
 10
1.295808501713046
 20
0.1730000737205078
 11
1.289745039559754
 21
0.1730000737205078
 72
     1
 10
1.289745039559755
 20
0.1730000737205078
 11
1.282562169008934
 21
0.1730000737205078
 72
     1
 10
1.282562169008935
 20
0.1730000737205078
 11
1.274446458126837
 21
0.1730000737205078
 72
     1
 10
1.274446458126837
 20
0.1730000737205078
 11
1.265771043045975
 21
0.1730000737205078
 72
     1
 10
1.265771043045973
 20
0.1730000737205078
 11
1.256815775865728
 21
0.1730000737205078
 72
     1
 10
1.256815775865729
 20
0.1730000737205078
 11
1.247767224652355
 21
0.1730000737205078
 72
     1
 10
1.247767224652355
 20
0.1730000737205078
 11
1.238998525538365
 21
0.1730000737205078
 72
     1
 10
1.238998525538365
 20
0.1730000737205078
 11
1.230602962556885
 21
0.1730000737205078
 72
     1
 10
1.230602962556885
 20
0.1730000737205078
 11
1.223046955873553
 21
0.1730000737205078
 72
     1
 10
1.223046955873553
 20
0.1730000737205078
 11
1.216517073554625
 21
0.1730000737205078
 72
     1
 10
1.216517073554626
 20
0.1730000737205078
 11
1.211199883666355
 21
0.1730000737205078
 72
     1
 10
1.211199883666355
 20
0.1730000737205078
 11
1.207468522341252
 21
0.1730000737205078
 72
     1
 10
1.207468522341252
 20
0.1730000737205078
 11
1.205602841678701
 21
0.1730000737205078
 72
     1
 10
1.205602841678699
 20
0.1730000737205078
 11
1.205602841678699
 21
0.1754254585818243
 72
     1
 10
1.205602841678699
 20
0.1754254585818245
 11
1.205602841678699
 21
0.1794366720063095
 72
     1
 10
1.205602841678699
 20
0.1794366720063094
 11
1.205602841678699
 21
0.1843807257620694
 72
     1
 10
1.205602841678699
 20
0.1843807257620694
 11
1.205602841678699
 21
0.1898844837165951
 72
     1
 10
1.205602841678699
 20
0.1898844837165951
 11
1.205602841678699
 21
0.1952949576379935
 72
     1
 10
1.205602841678699
 20
0.1952949576379937
 11
1.205602841678699
 21
0.2003322954268815
 72
     1
 10
1.205602841678699
 20
0.2003322954268814
 11
1.205602841678699
 21
0.2042502248182386
 72
     1
 10
1.205602841678699
 20
0.2042502248182386
 11
1.205602841678699
 21
0.206675609679555
 72
     1
 10
1.205602841678699
 20
0.206675609679555
 11
1.207468522341251
 21
0.206675609679555
 72
     1
 10
1.207468522341252
 20
0.206675609679555
 11
1.211293167699483
 21
0.206675609679555
 72
     1
 10
1.211293167699483
 20
0.206675609679555
 11
1.21670364162088
 21
0.206675609679555
 72
     1
 10
1.216703641620879
 20
0.206675609679555
 11
1.223420092006063
 21
0.206675609679555
 72
     1
 10
1.223420092006064
 20
0.206675609679555
 11
1.231255950788778
 21
0.206675609679555
 72
     1
 10
1.231255950788778
 20
0.206675609679555
 11
1.239744797803386
 21
0.206675609679555
 72
     1
 10
1.239744797803385
 20
0.206675609679555
 11
1.248886633049885
 21
0.206675609679555
 72
     1
 10
1.248886633049885
 20
0.206675609679555
 11
1.258121752329513
 21
0.206675609679555
 72
     1
 10
1.258121752329514
 20
0.206675609679555
 11
1.267356871609143
 21
0.206675609679555
 72
     1
 10
1.267356871609142
 20
0.206675609679555
 11
1.276218854756259
 21
0.206675609679555
 72
     1
 10
1.276218854756259
 20
0.206675609679555
 11
1.284521133704611
 21
0.206675609679555
 72
     1
 10
1.284521133704611
 20
0.206675609679555
 11
1.291890572321688
 21
0.206675609679555
 72
     1
 10
1.291890572321688
 20
0.206675609679555
 11
1.298140602541234
 21
0.206675609679555
 72
     1
 10
1.298140602541234
 20
0.206675609679555
 11
1.30289808823074
 21
0.206675609679555
 72
     1
 10
1.30289808823074
 20
0.206675609679555
 11
1.305976461323949
 21
0.206675609679555
 72
     1
 10
1.305976461323949
 20
0.206675609679555
 11
1.30709586972148
 21
0.206675609679555
 72
     1
 10
1.307095869721479
 20
0.206675609679555
 11
1.307095869721479
 21
0.2277578011663822
 72
     1
 10
1.307095869721479
 20
0.2277578011663825
 11
1.304577200827036
 21
0.2277578011663825
 72
     1
 10
1.304577200827037
 20
0.2277578011663825
 11
1.182188549363684
 21
0.2277578011663825
 72
     1
 10
1.182188549363684
 20
0.2277578011663825
 11
1.182188549363684
 21
0.0926825211976832
 72
     1
 10
1.182188549363684
 20
0.0926825211976832
 11
1.311853355410986
 21
0.0926825211976832
 72
     1
 10
1.311853355410985
 20
0.0926825211976832
 11
1.311853355410985
 21
0.113671428651383
 72
     1
 10
1.311853355410985
 20
0.1136714286513832
 11
1.310733947013454
 21
0.1136714286513832
 72
     1
 10
1.310733947013455
 20
0.1136714286513832
 11
1.307469005853991
 21
0.1136714286513832
 72
     1
 10
1.307469005853991
 20
0.1136714286513832
 11
1.302431668065102
 21
0.1136714286513832
 72
     1
 10
1.302431668065103
 20
0.1136714286513832
 11
1.295901785746174
 21
0.1136714286513832
 72
     1
 10
1.295901785746174
 20
0.1136714286513832
 11
1.288159210996586
 21
0.1136714286513832
 72
     1
 10
1.288159210996587
 20
0.1136714286513832
 11
1.279483795915724
 21
0.1136714286513832
 72
     1
 10
1.279483795915723
 20
0.1136714286513832
 11
1.270155392602968
 21
0.1136714286513832
 72
     1
 10
1.270155392602969
 20
0.1136714286513832
 11
1.260547137190832
 21
0.1136714286513832
 72
     1
 10
1.260547137190831
 20
0.1136714286513832
 11
1.250752313712437
 21
0.1136714286513832
 72
     1
 10
1.250752313712437
 20
0.1136714286513832
 11
1.241330626366554
 21
0.1136714286513832
 72
     1
 10
1.241330626366555
 20
0.1136714286513832
 11
1.23237535918631
 21
0.1136714286513832
 72
     1
 10
1.232375359186308
 20
0.1136714286513832
 11
1.224166364271082
 21
0.1136714286513832
 72
     1
 10
1.224166364271083
 20
0.1136714286513832
 11
1.217170061786517
 21
0.1136714286513832
 72
     1
 10
1.217170061786517
 20
0.1136714286513832
 11
1.211479735765737
 21
0.1136714286513832
 72
     1
 10
1.211479735765737
 20
0.1136714286513832
 11
1.20756180637438
 21
0.1136714286513832
 72
     1
 10
1.207561806374379
 20
0.1136714286513832
 11
1.2056028416787
 21
0.1136714286513832
 72
     1
 10
1.205602841678699
 20
0.1136714286513832
 11
1.205602841678699
 21
0.1163766656120825
 72
     1
 10
1.205602841678699
 20
0.1163766656120823
 11
1.205602841678699
 21
0.1209475832353323
 72
     1
 10
1.205602841678699
 20
0.1209475832353325
 11
1.205602841678699
 21
0.1267311932892411
 72
     1
 10
1.205602841678699
 20
0.1267311932892408
 11
1.205602841678699
 21
0.1330745075419143
 72
     1
 10
1.205602841678699
 20
0.1330745075419144
 11
1.205602841678699
 21
0.1395111058277156
 72
     1
 10
1.205602841678699
 20
0.1395111058277158
 11
1.205602841678699
 21
0.1452947158816239
 72
     1
 10
1.205602841678699
 20
0.145294715881624
 11
1.205602841678699
 21
0.1498656335048746
 72
     1
 10
1.205602841678699
 20
0.1498656335048745
 11
1.205602841678699
 21
0.1525708704655738
 97
        0
 75
     0
 76
     1
 98
        1
 10
-0.3743130907707726
 20
-0.2500502867693841
450
        0
451
        0
460
0.0
461
0.0
452
        0
462
0.0
453
        0
470

1001
ACAD
1010
0.0
1020
0.0
1030
0.0
  0
HATCH
  5
128D2
330
124E1
100
AcDbEntity
  8
Kawneer Logo-English
100
AcDbHatch
 10
0.0
 20
0.0
 30
0.0
210
0.0
220
0.0
230
1.0
  2
SOLID
 70
     1
 71
     0
 91
        1
 92
        1
 93
       87
 72
     1
 10
1.049352086190046
 20
0.1525708704655737
 11
1.051217766852597
 21
0.1525708704655737
 72
     1
 10
1.051217766852596
 20
0.1525708704655737
 11
1.054949128177699
 21
0.1525708704655737
 72
     1
 10
1.0549491281777
 20
0.1525708704655737
 11
1.060173034032843
 21
0.1525708704655737
 72
     1
 10
1.060173034032843
 20
0.1525708704655737
 11
1.0667962003849
 21
0.1525708704655737
 72
     1
 10
1.0667962003849
 20
0.1525708704655737
 11
1.074352207068231
 21
0.1525708704655737
 72
     1
 10
1.074352207068232
 20
0.1525708704655737
 11
1.082747770049711
 21
0.1525708704655737
 72
     1
 10
1.082747770049711
 20
0.1525708704655737
 11
1.0915164691637
 21
0.1525708704655737
 72
     1
 10
1.091516469163701
 20
0.1525708704655737
 11
1.100565020377075
 21
0.1525708704655737
 72
     1
 10
1.100565020377073
 20
0.1525708704655737
 11
1.109520287557319
 21
0.1525708704655737
 72
     1
 10
1.10952028755732
 20
0.1525708704655737
 11
1.118195702638183
 21
0.1525708704655737
 72
     1
 10
1.118195702638182
 20
0.1525708704655737
 11
1.126218129487151
 21
0.1525708704655737
 72
     1
 10
1.126218129487152
 20
0.1525708704655737
 11
1.133401000037974
 21
0.1525708704655737
 72
     1
 10
1.133401000037974
 20
0.1525708704655737
 11
1.139557746224391
 21
0.1525708704655737
 72
     1
 10
1.139557746224392
 20
0.1525708704655737
 11
1.14422194788077
 21
0.1525708704655737
 72
     1
 10
1.144221947880769
 20
0.1525708704655737
 11
1.147207036940851
 21
0.1525708704655737
 72
     1
 10
1.147207036940852
 20
0.1525708704655737
 11
1.148233161305255
 21
0.1525708704655737
 72
     1
 10
1.148233161305255
 20
0.1525708704655737
 11
1.148233161305255
 21
0.1730000737205081
 72
     1
 10
1.148233161305255
 20
0.1730000737205078
 11
1.147207036940852
 21
0.1730000737205078
 72
     1
 10
1.147207036940852
 20
0.1730000737205078
 11
1.14422194788077
 21
0.1730000737205078
 72
     1
 10
1.144221947880769
 20
0.1730000737205078
 11
1.139557746224391
 21
0.1730000737205078
 72
     1
 10
1.139557746224392
 20
0.1730000737205078
 11
1.133494284071101
 21
0.1730000737205078
 72
     1
 10
1.133494284071101
 20
0.1730000737205078
 11
1.126218129487152
 21
0.1730000737205078
 72
     1
 10
1.126218129487152
 20
0.1730000737205078
 11
1.118195702638183
 21
0.1730000737205078
 72
     1
 10
1.118195702638182
 20
0.1730000737205078
 11
1.10952028755732
 21
0.1730000737205078
 72
     1
 10
1.10952028755732
 20
0.1730000737205078
 11
1.100565020377074
 21
0.1730000737205078
 72
     1
 10
1.100565020377073
 20
0.1730000737205078
 11
1.0915164691637
 21
0.1730000737205078
 72
     1
 10
1.091516469163701
 20
0.1730000737205078
 11
1.082747770049712
 21
0.1730000737205078
 72
     1
 10
1.082747770049711
 20
0.1730000737205078
 11
1.074352207068231
 21
0.1730000737205078
 72
     1
 10
1.074352207068232
 20
0.1730000737205078
 11
1.0667962003849
 21
0.1730000737205078
 72
     1
 10
1.0667962003849
 20
0.1730000737205078
 11
1.060173034032843
 21
0.1730000737205078
 72
     1
 10
1.060173034032843
 20
0.1730000737205078
 11
1.054949128177701
 21
0.1730000737205078
 72
     1
 10
1.0549491281777
 20
0.1730000737205078
 11
1.051217766852597
 21
0.1730000737205078
 72
     1
 10
1.051217766852596
 20
0.1730000737205078
 11
1.049352086190045
 21
0.1730000737205078
 72
     1
 10
1.049352086190046
 20
0.1730000737205078
 11
1.049352086190046
 21
0.1754254585818243
 72
     1
 10
1.049352086190046
 20
0.1754254585818245
 11
1.049352086190046
 21
0.1794366720063095
 72
     1
 10
1.049352086190046
 20
0.1794366720063094
 11
1.049352086190046
 21
0.1843807257620694
 72
     1
 10
1.049352086190046
 20
0.1843807257620694
 11
1.049352086190046
 21
0.1898844837165951
 72
     1
 10
1.049352086190046
 20
0.1898844837165951
 11
1.049352086190046
 21
0.1952949576379935
 72
     1
 10
1.049352086190046
 20
0.1952949576379937
 11
1.049352086190046
 21
0.2003322954268815
 72
     1
 10
1.049352086190046
 20
0.2003322954268814
 11
1.049352086190046
 21
0.2042502248182386
 72
     1
 10
1.049352086190046
 20
0.2042502248182386
 11
1.049352086190046
 21
0.206675609679555
 72
     1
 10
1.049352086190046
 20
0.206675609679555
 11
1.051217766852597
 21
0.206675609679555
 72
     1
 10
1.051217766852596
 20
0.206675609679555
 11
1.055042412210825
 21
0.206675609679555
 72
     1
 10
1.055042412210827
 20
0.206675609679555
 11
1.060452886132226
 21
0.206675609679555
 72
     1
 10
1.060452886132225
 20
0.206675609679555
 11
1.067169336517409
 21
0.206675609679555
 72
     1
 10
1.06716933651741
 20
0.206675609679555
 11
1.075005195300124
 21
0.206675609679555
 72
     1
 10
1.075005195300123
 20
0.206675609679555
 11
1.083494042314731
 21
0.206675609679555
 72
     1
 10
1.083494042314732
 20
0.206675609679555
 11
1.092542593528105
 21
0.206675609679555
 72
     1
 10
1.092542593528106
 20
0.206675609679555
 11
1.10187099684086
 21
0.206675609679555
 72
     1
 10
1.101870996840861
 20
0.206675609679555
 11
1.111106116120489
 21
0.206675609679555
 72
     1
 10
1.111106116120488
 20
0.206675609679555
 11
1.119968099267605
 21
0.206675609679555
 72
     1
 10
1.119968099267605
 20
0.206675609679555
 11
1.128270378215957
 21
0.206675609679555
 72
     1
 10
1.128270378215957
 20
0.206675609679555
 11
1.135639816833034
 21
0.206675609679555
 72
     1
 10
1.135639816833034
 20
0.206675609679555
 11
1.14188984705258
 21
0.206675609679555
 72
     1
 10
1.141889847052581
 20
0.206675609679555
 11
1.146647332742086
 21
0.206675609679555
 72
     1
 10
1.146647332742086
 20
0.206675609679555
 11
1.149725705835295
 21
0.206675609679555
 72
     1
 10
1.149725705835296
 20
0.206675609679555
 11
1.150845114232827
 21
0.206675609679555
 72
     1
 10
1.150845114232826
 20
0.206675609679555
 11
1.150845114232826
 21
0.2277578011663822
 72
     1
 10
1.150845114232826
 20
0.2277578011663825
 11
1.148326445338383
 21
0.2277578011663825
 72
     1
 10
1.148326445338383
 20
0.2277578011663825
 11
1.025937793875031
 21
0.2277578011663825
 72
     1
 10
1.025937793875032
 20
0.2277578011663825
 11
1.025937793875032
 21
0.0926825211976832
 72
     1
 10
1.025937793875032
 20
0.0926825211976832
 11
1.155602599922332
 21
0.0926825211976832
 72
     1
 10
1.155602599922332
 20
0.0926825211976832
 11
1.155602599922332
 21
0.113671428651383
 72
     1
 10
1.155602599922332
 20
0.1136714286513832
 11
1.154483191524801
 21
0.1136714286513832
 72
     1
 10
1.154483191524799
 20
0.1136714286513832
 11
1.151218250365336
 21
0.1136714286513832
 72
     1
 10
1.151218250365338
 20
0.1136714286513832
 11
1.146180912576449
 21
0.1136714286513832
 72
     1
 10
1.146180912576449
 20
0.1136714286513832
 11
1.13965103025752
 21
0.1136714286513832
 72
     1
 10
1.13965103025752
 20
0.1136714286513832
 11
1.131908455507932
 21
0.1136714286513832
 72
     1
 10
1.131908455507931
 20
0.1136714286513832
 11
1.12323304042707
 21
0.1136714286513832
 72
     1
 10
1.123233040427071
 20
0.1136714286513832
 11
1.113904637114314
 21
0.1136714286513832
 72
     1
 10
1.113904637114314
 20
0.1136714286513832
 11
1.104296381702177
 21
0.1136714286513832
 72
     1
 10
1.104296381702177
 20
0.1136714286513832
 11
1.094501558223783
 21
0.1136714286513832
 72
     1
 10
1.094501558223784
 20
0.1136714286513832
 11
1.085079870877901
 21
0.1136714286513832
 72
     1
 10
1.085079870877899
 20
0.1136714286513832
 11
1.076124603697654
 21
0.1136714286513832
 72
     1
 10
1.076124603697655
 20
0.1136714286513832
 11
1.067915608782429
 21
0.1136714286513832
 72
     1
 10
1.067915608782429
 20
0.1136714286513832
 11
1.060919306297863
 21
0.1136714286513832
 72
     1
 10
1.060919306297863
 20
0.1136714286513832
 11
1.055228980277083
 21
0.1136714286513832
 72
     1
 10
1.055228980277082
 20
0.1136714286513832
 11
1.051311050885725
 21
0.1136714286513832
 72
     1
 10
1.051311050885726
 20
0.1136714286513832
 11
1.049352086190046
 21
0.1136714286513832
 72
     1
 10
1.049352086190046
 20
0.1136714286513832
 11
1.049352086190046
 21
0.1163766656120825
 72
     1
 10
1.049352086190046
 20
0.1163766656120823
 11
1.049352086190046
 21
0.1209475832353323
 72
     1
 10
1.049352086190046
 20
0.1209475832353325
 11
1.049352086190046
 21
0.1267311932892411
 72
     1
 10
1.049352086190046
 20
0.1267311932892408
 11
1.049352086190046
 21
0.1330745075419143
 72
     1
 10
1.049352086190046
 20
0.1330745075419144
 11
1.049352086190046
 21
0.1395111058277156
 72
     1
 10
1.049352086190046
 20
0.1395111058277158
 11
1.049352086190046
 21
0.1452947158816239
 72
     1
 10
1.049352086190046
 20
0.145294715881624
 11
1.049352086190046
 21
0.1498656335048746
 72
     1
 10
1.049352086190046
 20
0.1498656335048745
 11
1.049352086190046
 21
0.1525708704655738
 97
        0
 75
     0
 76
     1
 98
        1
 10
-0.3743130907707726
 20
-0.2500502867693841
450
        0
451
        0
460
0.0
461
0.0
452
        0
462
0.0
453
        0
470

1001
ACAD
1010
0.0
1020
0.0
1030
0.0
  0
HATCH
  5
128D3
330
124E1
100
AcDbEntity
  8
Kawneer Logo-English
100
AcDbHatch
 10
0.0
 20
0.0
 30
0.0
210
0.0
220
0.0
230
1.0
  2
SOLID
 70
     1
 71
     0
 91
        1
 92
        1
 93
       42
 72
     1
 10
0.9725793269260698
 20
0.2277578011663825
 11
0.9725793269260698
 21
0.1354998924032311
 72
     1
 10
0.9725793269260698
 20
0.1354998924032311
 11
0.9729524630585808
 21
0.1264513411898582
 72
     1
 10
0.9729524630585796
 20
0.1264513411898583
 11
0.9729524630585796
 21
0.1255185008585825
 72
     1
 10
0.9729524630585796
 20
0.1255185008585824
 11
0.9731390311248343
 21
0.1238393882622866
 72
     1
 10
0.9731390311248349
 20
0.1238393882622866
 11
0.9717397706279211
 21
0.1254252168254551
 72
     1
 10
0.97173977062792
 20
0.1254252168254551
 11
0.9710867823960281
 21
0.1262647731236031
 72
     1
 10
0.9710867823960294
 20
0.1262647731236031
 11
0.9641837639445897
 21
0.1339140638400625
 72
     1
 10
0.9641837639445899
 20
0.1339140638400624
 11
0.8755639324734129
 21
0.2277578011663823
 72
     1
 10
0.8755639324734115
 20
0.2277578011663825
 11
0.8529891964565429
 21
0.2277578011663825
 72
     1
 10
0.8529891964565434
 20
0.2277578011663825
 11
0.8529891964565434
 21
0.0926825211976832
 72
     1
 10
0.8529891964565434
 20
0.0926825211976832
 11
0.8756572165065401
 21
0.0926825211976832
 72
     1
 10
0.875657216506541
 20
0.0926825211976832
 11
0.875657216506541
 21
0.1927762887435495
 72
     1
 10
0.875657216506541
 20
0.1927762887435495
 11
0.875657216506541
 21
0.1931494248760597
 72
     1
 10
0.875657216506541
 20
0.1931494248760596
 11
0.8755639324734129
 21
0.193988981174208
 72
     1
 10
0.8755639324734115
 20
0.1939889811742079
 11
0.8754706484402849
 21
0.1952949576379935
 72
     1
 10
0.8754706484402859
 20
0.1952949576379937
 11
0.8753773644071577
 21
0.1967875021680344
 72
     1
 10
0.875377364407158
 20
0.1967875021680343
 11
0.8755639324734126
 21
0.1965076500686515
 72
     1
 10
0.8755639324734115
 20
0.1965076500686517
 11
0.8756572165065396
 21
0.1963210820023967
 72
     1
 10
0.875657216506541
 20
0.1963210820023967
 11
0.8764967728046894
 21
0.1954815257042487
 72
     1
 10
0.8764967728046887
 20
0.1954815257042488
 11
0.8781758854009835
 21
0.1936158450416976
 72
     1
 10
0.8781758854009842
 20
0.1936158450416973
 11
0.8797617139641527
 21
0.1917501643791464
 72
     1
 10
0.879761713964152
 20
0.1917501643791466
 11
0.8805079862291723
 21
0.1909106080809982
 72
     1
 10
0.8805079862291727
 20
0.190910608080998
 11
0.8816273946267036
 21
0.1897911996834678
 72
     1
 10
0.8816273946267028
 20
0.1897911996834681
 11
0.884519199653657
 21
0.1867128265902584
 72
     1
 10
0.8845191996536581
 20
0.1867128265902582
 11
0.8891834013100353
 21
0.1818620568676254
 72
     1
 10
0.889183401310035
 20
0.1818620568676252
 11
0.8951535794301982
 21
0.1756120266480794
 72
     1
 10
0.8951535794301985
 20
0.1756120266480794
 11
0.9021498819147662
 21
0.1681493039978751
 72
     1
 10
0.9021498819147669
 20
0.1681493039978752
 11
0.9099857406974814
 21
0.1598470250495227
 72
     1
 10
0.9099857406974813
 20
0.1598470250495225
 11
0.9183813036789613
 21
0.1509850419024051
 72
     1
 10
0.9183813036789612
 20
0.1509850419024052
 11
0.9271500027929521
 21
0.1418432066559046
 72
     1
 10
0.9271500027929509
 20
0.1418432066559046
 11
0.9358254178738118
 21
0.1326080873762767
 72
     1
 10
0.9358254178738132
 20
0.1326080873762767
 11
0.9442209808552931
 21
0.1237461042291589
 72
     1
 10
0.9442209808552931
 20
0.1237461042291589
 11
0.9520568396380092
 21
0.1154438252808068
 72
     1
 10
0.9520568396380092
 20
0.1154438252808068
 11
0.9590531421225751
 21
0.1079811026306025
 72
     1
 10
0.959053142122574
 20
0.1079811026306024
 11
0.9650233202427372
 21
0.101731072411056
 72
     1
 10
0.9650233202427376
 20
0.101731072411056
 11
0.9695942378659868
 21
0.0968803026884232
 72
     1
 10
0.9695942378659871
 20
0.096880302688423
 11
0.9725793269260696
 21
0.0938019295952138
 72
     1
 10
0.9725793269260698
 20
0.093801929595214
 11
0.9736054512904727
 21
0.0926825211976834
 72
     1
 10
0.9736054512904726
 20
0.0926825211976832
 11
0.9952473469760661
 21
0.0926825211976832
 72
     1
 10
0.9952473469760651
 20
0.0926825211976832
 11
0.9952473469760651
 21
0.2277578011663825
 72
     1
 10
0.9952473469760651
 20
0.2277578011663825
 11
0.9927286780816201
 21
0.2277578011663825
 72
     1
 10
0.9927286780816203
 20
0.2277578011663825
 11
0.9725793269260686
 21
0.2277578011663825
 97
        0
 75
     0
 76
     1
 98
        1
 10
-0.3743130907707726
 20
-0.2500502867693841
450
        0
451
        0
460
0.0
461
0.0
452
        0
462
0.0
453
        0
470

1001
ACAD
1010
0.0
1020
0.0
1030
0.0
  0
HATCH
  5
128D4
330
124E1
100
AcDbEntity
  8
Kawneer Logo-English
100
AcDbHatch
 10
0.0
 20
0.0
 30
0.0
210
0.0
220
0.0
230
1.0
  2
SOLID
 70
     1
 71
     0
 91
        2
 92
       16
 93
       32
 72
     1
 10
0.5269615006757409
 20
0.144641727649731
 11
0.5290137494045469
 21
0.148652941074216
 72
     1
 10
0.5290137494045464
 20
0.1486529410742159
 11
0.5322786905640116
 21
0.1551828233931449
 72
     1
 10
0.532278690564012
 20
0.1551828233931452
 11
0.5364764720547521
 21
0.1633918183083696
 72
     1
 10
0.5364764720547526
 20
0.1633918183083696
 11
0.5409541056448736
 21
0.1722538014554874
 72
     1
 10
0.5409541056448726
 20
0.1722538014554873
 11
0.545338455201869
 21
0.1808359325032223
 72
     1
 10
0.5453384552018701
 20
0.1808359325032223
 11
0.5490698165269726
 21
0.1882053711202994
 72
     1
 10
0.549069816526973
 20
0.1882053711202996
 11
0.5515884854214162
 21
0.1932427089091875
 72
     1
 10
0.5515884854214148
 20
0.1932427089091872
 11
0.5526146097858177
 21
0.1952016736048658
 72
     1
 10
0.5526146097858194
 20
0.1952016736048658
 11
0.552801177852074
 21
0.195761377803631
 72
     1
 10
0.5528011778520723
 20
0.1957613778036309
 11
0.5533608820508379
 21
0.1970673542674166
 72
     1
 10
0.5533608820508378
 20
0.1970673542674169
 11
0.5542004383489863
 21
0.1990263189630955
 72
     1
 10
0.5542004383489872
 20
0.1990263189630952
 11
0.5550399946471356
 21
0.2012651357581567
 72
     1
 10
0.5550399946471352
 20
0.2012651357581567
 11
0.5555064148127727
 21
0.2001457273606265
 72
     1
 10
0.5555064148127729
 20
0.2001457273606264
 11
0.5560661190115385
 21
0.198933034929968
 72
     1
 10
0.5560661190115379
 20
0.198933034929968
 11
0.5567191072434298
 21
0.197533774433055
 72
     1
 10
0.5567191072434304
 20
0.197533774433055
 11
0.5574653795084506
 21
0.1959479458698865
 72
     1
 10
0.557465379508451
 20
0.1959479458698865
 11
0.5583049358065995
 21
0.1942688332735902
 72
     1
 10
0.5583049358065986
 20
0.1942688332735903
 11
0.5606370366347874
 21
0.1896046316172126
 72
     1
 10
0.5606370366347871
 20
0.1896046316172126
 11
0.5639952618273804
 21
0.1828881812320289
 72
     1
 10
0.5639952618273814
 20
0.1828881812320287
 11
0.5680064752518651
 21
0.1748657543830587
 72
     1
 10
0.5680064752518637
 20
0.1748657543830589
 11
0.57239082480886
 21
0.1661903393021966
 72
     1
 10
0.5723908248088612
 20
0.1661903393021967
 11
0.5765886062996012
 21
0.1577947763207168
 72
     1
 10
0.5765886062996
 20
0.1577947763207165
 11
0.5803199676247008
 21
0.1503320536705122
 72
     1
 10
0.5803199676247015
 20
0.1503320536705122
 11
0.5831184886185295
 21
0.144641727649731
 72
     1
 10
0.5831184886185295
 20
0.144641727649731
 11
0.5791072751940441
 21
0.144641727649731
 72
     1
 10
0.5791072751940436
 20
0.144641727649731
 11
0.5724841088419869
 21
0.144641727649731
 72
     1
 10
0.5724841088419872
 20
0.144641727649731
 11
0.5641818298936356
 21
0.144641727649731
 72
     1
 10
0.5641818298936352
 20
0.144641727649731
 11
0.5550399946471351
 21
0.144641727649731
 72
     1
 10
0.5550399946471352
 20
0.144641727649731
 11
0.5458981594006351
 21
0.144641727649731
 72
     1
 10
0.5458981594006352
 20
0.144641727649731
 11
0.5375958804522815
 21
0.144641727649731
 72
     1
 10
0.5375958804522814
 20
0.144641727649731
 11
0.5310659981333528
 21
0.144641727649731
 72
     1
 10
0.5310659981333524
 20
0.144641727649731
 11
0.5269615006757405
 21
0.144641727649731
 97
        0
 92
        1
 93
      141
 72
     1
 10
0.5656743744236757
 20
0.2277578011663825
 11
0.544405614870593
 21
0.2277578011663825
 72
     1
 10
0.544405614870593
 20
0.2277578011663825
 11
0.4748157261574382
 21
0.0934287934627039
 72
     1
 10
0.4748157261574378
 20
0.0934287934627039
 11
0.4729500454948865
 21
0.0955743262246376
 72
     1
 10
0.4729500454948874
 20
0.0955743262246376
 11
0.4699649564348049
 21
0.0991191194834847
 72
     1
 10
0.4699649564348043
 20
0.0991191194834847
 11
0.4661403110765752
 21
0.1036900371067346
 72
     1
 10
0.4661403110765754
 20
0.1036900371067347
 11
0.4615693934533244
 21
0.1091005110281331
 72
     1
 10
0.461569393453325
 20
0.109100511028133
 11
0.456345487598182
 21
0.1152572572145517
 72
     1
 10
0.4563454875981812
 20
0.1152572572145516
 11
0.4506551615774008
 21
0.1219737075997353
 72
     1
 10
0.4506551615774015
 20
0.1219737075997354
 11
0.4447782674903648
 21
0.1290632941174296
 72
     1
 10
0.4447782674903636
 20
0.1290632941174296
 11
0.4387148053370722
 21
0.1362461646682511
 72
     1
 10
0.4387148053370727
 20
0.1362461646682512
 11
0.4326513431837832
 21
0.1433357511859454
 72
     1
 10
0.4326513431837844
 20
0.1433357511859453
 11
0.4268677331298759
 21
0.1502387696373844
 72
     1
 10
0.4268677331298756
 20
0.1502387696373844
 11
0.4214572592084763
 21
0.1566753679231857
 72
     1
 10
0.4214572592084754
 20
0.1566753679231858
 11
0.4165132054527153
 21
0.1625522620102216
 72
     1
 10
0.4165132054527163
 20
0.1625522620102216
 11
0.4123154239619763
 21
0.1674963157659821
 72
     1
 10
0.4123154239619753
 20
0.1674963157659822
 11
0.4088639147362555
 21
0.1715075291904667
 72
     1
 10
0.4088639147362568
 20
0.1715075291904669
 11
0.4065318139080681
 21
0.1743993342174211
 72
     1
 10
0.4065318139080665
 20
0.1743993342174211
 11
0.405319121477409
 21
0.1757985947143345
 72
     1
 10
0.4053191214774104
 20
0.1757985947143345
 11
0.4067183819743243
 21
0.1769180031118651
 72
     1
 10
0.4067183819743235
 20
0.1769180031118651
 11
0.4094236189350213
 21
0.1788769678075437
 72
     1
 10
0.4094236189350218
 20
0.1788769678075437
 11
0.4132482642932526
 21
0.1816754888013702
 72
     1
 10
0.4132482642932525
 20
0.1816754888013703
 11
0.4179124659496298
 21
0.1852202820602174
 72
     1
 10
0.417912465949629
 20
0.1852202820602174
 11
0.4232296558379
 21
0.189138211451575
 72
     1
 10
0.4232296558379001
 20
0.1891382114515751
 11
0.4291065499249351
 21
0.1935225610085696
 72
     1
 10
0.4291065499249367
 20
0.1935225610085698
 11
0.4352632961113562
 21
0.1981867626649482
 72
     1
 10
0.4352632961113554
 20
0.1981867626649479
 11
0.4416066103640296
 21
0.2028509643213252
 72
     1
 10
0.4416066103640293
 20
0.2028509643213252
 11
0.4479499246167016
 21
0.2076084500108307
 72
     1
 10
0.4479499246167018
 20
0.2076084500108307
 11
0.4540133867699932
 21
0.2120860836009535
 72
     1
 10
0.4540133867699927
 20
0.2120860836009535
 11
0.4596104287576467
 21
0.2162838650916932
 72
     1
 10
0.4596104287576468
 20
0.216283865091693
 11
0.4646477665465351
 21
0.2200152264167952
 72
     1
 10
0.464647766546535
 20
0.2200152264167951
 11
0.4689388320704013
 21
0.223186883543132
 72
     1
 10
0.4689388320704016
 20
0.2231868835431323
 11
0.4721104891967386
 21
0.2256122684044488
 72
     1
 10
0.4721104891967376
 20
0.2256122684044488
 11
0.4742560219586717
 21
0.2271980969676172
 72
     1
 10
0.4742560219586727
 20
0.2271980969676173
 11
0.475002294223693
 21
0.2277578011663825
 72
     1
 10
0.4750022942236929
 20
0.2277578011663825
 11
0.4674462875403612
 21
0.2277578011663825
 72
     1
 10
0.4674462875403611
 20
0.2277578011663825
 11
0.4395543616352215
 21
0.2277578011663825
 72
     1
 10
0.439554361635222
 20
0.2277578011663825
 11
0.4386215213039473
 21
0.2270115289013622
 72
     1
 10
0.4386215213039466
 20
0.2270115289013622
 11
0.4359162843432469
 21
0.2250525642056836
 72
     1
 10
0.4359162843432465
 20
0.2250525642056836
 11
0.4318117868856346
 21
0.2220674751456017
 72
     1
 10
0.4318117868856351
 20
0.2220674751456017
 11
0.4264013129642376
 21
0.2180562617211167
 72
     1
 10
0.4264013129642379
 20
0.2180562617211168
 11
0.4200579987115638
 21
0.2132987760316117
 72
     1
 10
0.4200579987115641
 20
0.2132987760316114
 11
0.4128751281607416
 21
0.2079815861433408
 72
     1
 10
0.4128751281607408
 20
0.2079815861433408
 11
0.4051325534111546
 21
0.20229126012256
 72
     1
 10
0.4051325534111552
 20
0.20229126012256
 11
0.397016842529058
 21
0.1963210820023964
 72
     1
 10
0.3970168425290583
 20
0.1963210820023967
 11
0.3889011316469611
 21
0.1903509038822331
 72
     1
 10
0.3889011316469611
 20
0.190350903882233
 11
0.3808787047979902
 21
0.1844740097951972
 72
     1
 10
0.3808787047979898
 20
0.1844740097951974
 11
0.3733226981146581
 21
0.1787836837744166
 72
     1
 10
0.373322698114658
 20
0.1787836837744166
 11
0.3663263956300919
 21
0.173653061952401
 72
     1
 10
0.3663263956300931
 20
0.173653061952401
 11
0.3601696494436735
 21
0.169082144329151
 72
     1
 10
0.3601696494436726
 20
0.1690821443291508
 11
0.3550390276216579
 21
0.1653507830040483
 72
     1
 10
0.3550390276216584
 20
0.1653507830040482
 11
0.3513076662965558
 21
0.1625522620102218
 72
     1
 10
0.3513076662965551
 20
0.1625522620102216
 11
0.3490688495014928
 21
0.1609664334470531
 72
     1
 10
0.3490688495014926
 20
0.1609664334470531
 11
0.3490688495014926
 21
0.1631119662089868
 72
     1
 10
0.3490688495014926
 20
0.1631119662089868
 11
0.3490688495014926
 21
0.1662836233353237
 72
     1
 10
0.3490688495014926
 20
0.1662836233353238
 11
0.3490688495014926
 21
0.1702948367598088
 72
     1
 10
0.3490688495014926
 20
0.1702948367598088
 11
0.3490688495014926
 21
0.1749590384161865
 72
     1
 10
0.3490688495014926
 20
0.1749590384161865
 11
0.3490688495014926
 21
0.1801829442713294
 72
     1
 10
0.3490688495014926
 20
0.1801829442713296
 11
0.3490688495014926
 21
0.185779986258983
 72
     1
 10
0.3490688495014926
 20
0.1857799862589829
 11
0.3490688495014926
 21
0.1916568803460187
 72
     1
 10
0.3490688495014926
 20
0.1916568803460186
 11
0.3490688495014926
 21
0.1975337744330549
 72
     1
 10
0.3490688495014926
 20
0.197533774433055
 11
0.3490688495014926
 21
0.2033173844869632
 72
     1
 10
0.3490688495014926
 20
0.2033173844869631
 11
0.3490688495014926
 21
0.2088211424414888
 72
     1
 10
0.3490688495014926
 20
0.2088211424414888
 11
0.3490688495014926
 21
0.2139517642635044
 72
     1
 10
0.3490688495014926
 20
0.2139517642635044
 11
0.3490688495014926
 21
0.2185226818867544
 72
     1
 10
0.3490688495014926
 20
0.2185226818867545
 11
0.3490688495014926
 21
0.2222540432118567
 72
     1
 10
0.3490688495014926
 20
0.2222540432118567
 11
0.3490688495014926
 21
0.2252391322719387
 72
     1
 10
0.3490688495014926
 20
0.2252391322719387
 11
0.3490688495014926
 21
0.2271048129344895
 72
     1
 10
0.3490688495014926
 20
0.2271048129344895
 11
0.3490688495014926
 21
0.2277578011663825
 72
     1
 10
0.3490688495014926
 20
0.2277578011663825
 11
0.3258411252527322
 21
0.2277578011663825
 72
     1
 10
0.3258411252527336
 20
0.2277578011663825
 11
0.3258411252527336
 21
0.0926825211976832
 72
     1
 10
0.3258411252527336
 20
0.0926825211976832
 11
0.3486957133689848
 21
0.0926825211976832
 72
     1
 10
0.3486957133689845
 20
0.0926825211976832
 11
0.3486957133689845
 21
0.0943616337939795
 72
     1
 10
0.3486957133689845
 20
0.0943616337939795
 11
0.3486957133689845
 21
0.0988392673841017
 72
     1
 10
0.3486957133689845
 20
0.0988392673841017
 11
0.3486957133689845
 21
0.1051825816367752
 72
     1
 10
0.3486957133689845
 20
0.1051825816367753
 11
0.3486957133689845
 21
0.1125520202538523
 72
     1
 10
0.3486957133689845
 20
0.1125520202538524
 11
0.3486957133689845
 21
0.1200147429040567
 72
     1
 10
0.3486957133689845
 20
0.1200147429040567
 11
0.3486957133689845
 21
0.1267311932892408
 72
     1
 10
0.3486957133689845
 20
0.1267311932892408
 11
0.3486957133689845
 21
0.1317685310781287
 72
     1
 10
0.3486957133689845
 20
0.1317685310781289
 11
0.3486957133689845
 21
0.1342871999725727
 72
     1
 10
0.3486957133689845
 20
0.1342871999725725
 11
0.3507479620977905
 21
0.1356864604694859
 72
     1
 10
0.35074796209779
 20
0.1356864604694859
 11
0.3548524595554018
 21
0.1387648335626952
 72
     1
 10
0.3548524595554015
 20
0.1387648335626952
 11
0.3605427855761835
 21
0.1428693310203079
 72
     1
 10
0.3605427855761842
 20
0.1428693310203079
 11
0.3668860998288565
 21
0.1476268167098129
 72
     1
 10
0.3668860998288568
 20
0.1476268167098129
 11
0.373322698114659
 21
0.1522910183661906
 72
     1
 10
0.373322698114658
 20
0.1522910183661908
 11
0.3791995922016947
 21
0.1565820838900582
 72
     1
 10
0.3791995922016946
 20
0.1565820838900582
 11
0.3836772257918156
 21
0.1599403090826502
 72
     1
 10
0.3836772257918159
 20
0.1599403090826503
 11
0.386195894686261
 21
0.1618059897452011
 72
     1
 10
0.3861958946862609
 20
0.1618059897452011
 11
0.3873153030837921
 21
0.1604067292482882
 72
     1
 10
0.3873153030837915
 20
0.1604067292482878
 11
0.3894608358457238
 21
0.1577947763207163
 72
     1
 10
0.3894608358457248
 20
0.1577947763207165
 11
0.3925392089389353
 21
0.1541566990287417
 72
     1
 10
0.3925392089389348
 20
0.1541566990287417
 11
0.396457138330292
 21
0.149492497372364
 72
     1
 10
0.3964571383302933
 20
0.149492497372364
 11
0.4009347719204161
 21
0.1442685915172211
 72
     1
 10
0.4009347719204146
 20
0.1442685915172209
 11
0.4057855416430466
 21
0.138391697430185
 72
     1
 10
0.4057855416430463
 20
0.1383916974301853
 11
0.4109161634650628
 21
0.1322349512437666
 72
     1
 10
0.410916163465064
 20
0.1322349512437666
 11
0.4162333533533335
 21
0.1259849210242201
 72
     1
 10
0.4162333533533334
 20
0.1259849210242201
 11
0.4215505432416044
 21
0.1196416067715466
 72
     1
 10
0.4215505432416045
 20
0.1196416067715466
 11
0.4265878810304927
 21
0.113671428651383
 72
     1
 10
0.4265878810304931
 20
0.1136714286513832
 11
0.4312520826868704
 21
0.1079811026306024
 72
     1
 10
0.4312520826868696
 20
0.1079811026306024
 11
0.4355431482107378
 21
0.1029437648417141
 72
     1
 10
0.435543148210738
 20
0.1029437648417139
 11
0.4390879414695842
 21
0.0987459833509739
 72
     1
 10
0.4390879414695843
 20
0.0987459833509741
 11
0.4417931784302841
 21
0.0954810421915098
 72
     1
 10
0.4417931784302845
 20
0.0954810421915096
 11
0.4435655750597076
 21
0.0934287934627037
 72
     1
 10
0.4435655750597074
 20
0.0934287934627039
 11
0.4442185632915993
 21
0.0926825211976832
 72
     1
 10
0.4442185632915985
 20
0.0926825211976832
 11
0.4743493059918004
 21
0.0926825211976832
 72
     1
 10
0.4743493059918001
 20
0.0926825211976832
 11
0.4753754303562029
 21
0.0926825211976832
 72
     1
 10
0.4753754303562033
 20
0.0926825211976832
 11
0.5008419714000258
 21
0.0926825211976832
 72
     1
 10
0.5008419714000265
 20
0.0926825211976832
 11
0.5014949596319184
 21
0.0939884976614689
 72
     1
 10
0.501494959631919
 20
0.0939884976614688
 11
0.5031740722282155
 21
0.0973467228540609
 72
     1
 10
0.503174072228215
 20
0.0973467228540612
 11
0.5055061730564038
 21
0.1021042085435666
 72
     1
 10
0.505506173056403
 20
0.1021042085435665
 11
0.5083046940502291
 21
0.1077012505312196
 72
     1
 10
0.5083046940502292
 20
0.1077012505312194
 11
0.5111032150440553
 21
0.1134848605851279
 72
     1
 10
0.5111032150440549
 20
0.1134848605851281
 11
0.5137151679716264
 21
0.1186154824071433
 72
     1
 10
0.5137151679716277
 20
0.1186154824071433
 11
0.5156741326673071
 21
0.1226266958316283
 72
     1
 10
0.5156741326673076
 20
0.122626695831628
 11
0.5167002570317104
 21
0.1247722285935621
 72
     1
 10
0.5167002570317103
 20
0.1247722285935622
 11
0.5180062334954961
 21
0.1247722285935622
 72
     1
 10
0.5180062334954961
 20
0.1247722285935622
 11
0.5207114704561957
 21
0.1247722285935622
 72
     1
 10
0.5207114704561944
 20
0.1247722285935622
 11
0.5246293998475517
 21
0.1247722285935622
 72
     1
 10
0.5246293998475525
 20
0.1247722285935622
 11
0.5295734536033125
 21
0.1247722285935622
 72
     1
 10
0.5295734536033115
 20
0.1247722285935622
 11
0.5352637796240919
 21
0.1247722285935622
 72
     1
 10
0.5352637796240929
 20
0.1247722285935622
 11
0.5415138098436386
 21
0.1247722285935622
 72
     1
 10
0.5415138098436394
 20
0.1247722285935622
 11
0.5482302602288245
 21
0.1247722285935622
 72
     1
 10
0.5482302602288236
 20
0.1247722285935622
 11
0.5551332786802616
 21
0.1247722285935622
 72
     1
 10
0.5551332786802608
 20
0.1247722285935622
 11
0.5620362971317004
 21
0.1247722285935622
 72
     1
 10
0.5620362971317015
 20
0.1247722285935622
 11
0.5687527475168847
 21
0.1247722285935622
 72
     1
 10
0.5687527475168839
 20
0.1247722285935622
 11
0.5750027777364317
 21
0.1247722285935622
 72
     1
 10
0.5750027777364322
 20
0.1247722285935622
 11
0.5806931037572126
 21
0.1247722285935622
 72
     1
 10
0.5806931037572119
 20
0.1247722285935622
 11
0.585637157512972
 21
0.1247722285935622
 72
     1
 10
0.5856371575129727
 20
0.1247722285935622
 11
0.5895550869043299
 21
0.1247722285935622
 72
     1
 10
0.5895550869043289
 20
0.1247722285935622
 11
0.5922603238650286
 21
0.1247722285935622
 72
     1
 10
0.5922603238650291
 20
0.1247722285935622
 11
0.5935663003288148
 21
0.1247722285935622
 72
     1
 10
0.5935663003288148
 20
0.1247722285935622
 11
0.5945924246932176
 21
0.1226266958316281
 72
     1
 10
0.5945924246932175
 20
0.122626695831628
 11
0.5965513893888953
 21
0.1186154824071431
 72
     1
 10
0.5965513893888957
 20
0.1186154824071433
 11
0.5991633423164672
 21
0.1134848605851281
 72
     1
 10
0.5991633423164667
 20
0.1134848605851281
 11
0.6019618633102946
 21
0.1077012505312196
 72
     1
 10
0.6019618633102959
 20
0.1077012505312194
 11
0.604760384304122
 21
0.1021042085435664
 72
     1
 10
0.6047603843041221
 20
0.1021042085435665
 11
0.6070924851323109
 21
0.0973467228540611
 72
     1
 10
0.6070924851323101
 20
0.0973467228540612
 11
0.6087715977286067
 21
0.0939884976614691
 72
     1
 10
0.6087715977286062
 20
0.0939884976614688
 11
0.609424585960498
 21
0.0926825211976832
 72
     1
 10
0.6094245859604986
 20
0.0926825211976832
 11
0.6363836715343633
 21
0.0926825211976832
 72
     1
 10
0.6363836715343641
 20
0.0926825211976832
 11
0.5671669189537184
 21
0.2277578011663825
 72
     1
 10
0.5671669189537179
 20
0.2277578011663825
 11
0.5656743744236758
 21
0.2277578011663825
 97
        0
 75
     0
 76
     1
 98
        1
 10
-0.3743130907707726
 20
-0.2500502867693841
450
        0
451
        0
460
0.0
461
0.0
452
        0
462
0.0
453
        0
470

1001
ACAD
1010
0.0
1020
0.0
1030
0.0
  0
HATCH
  5
128D5
330
124E1
100
AcDbEntity
  8
Kawneer Logo-English
100
AcDbHatch
 10
0.0
 20
0.0
 30
0.0
210
0.0
220
0.0
230
1.0
  2
SOLID
 70
     1
 71
     0
 91
        1
 92
        1
 93
       69
 72
     1
 10
0.8092389849197205
 20
0.2277578011663825
 11
0.778921674153266
 21
0.1309289747799811
 72
     1
 10
0.778921674153267
 20
0.1309289747799809
 11
0.7781754018882468
 21
0.1287834420180468
 72
     1
 10
0.7781754018882468
 20
0.1287834420180467
 11
0.7776156976894812
 21
0.1270110453886236
 72
     1
 10
0.7776156976894813
 20
0.1270110453886237
 11
0.7771492775238438
 21
0.1253319327923275
 72
     1
 10
0.7771492775238436
 20
0.1253319327923274
 11
0.7766828573582045
 21
0.1238393882622867
 72
     1
 10
0.7766828573582046
 20
0.1238393882622866
 11
0.7764030052588217
 21
0.1248655126266895
 72
     1
 10
0.776403005258822
 20
0.1248655126266896
 11
0.7761231531594392
 21
0.1259849210242202
 72
     1
 10
0.7761231531594391
 20
0.1259849210242201
 11
0.7759365850931844
 21
0.1268244773223681
 72
     1
 10
0.7759365850931843
 20
0.1268244773223682
 11
0.7758433010600562
 21
0.1271976134548783
 72
     1
 10
0.7758433010600552
 20
0.1271976134548783
 11
0.7755634489606744
 21
0.1280371697530267
 72
     1
 10
0.775563448960674
 20
0.1280371697530267
 11
0.7750970287950349
 21
0.1291565781505569
 72
     1
 10
0.7750970287950363
 20
0.1291565781505568
 11
0.773977620397507
 21
0.1323282352768938
 72
     1
 10
0.7739776203975062
 20
0.1323282352768939
 11
0.7721119397349549
 21
0.1372722890326544
 72
     1
 10
0.7721119397349554
 20
0.1372722890326546
 11
0.7697798389067666
 21
0.1436156032853281
 72
     1
 10
0.769779838906767
 20
0.1436156032853281
 11
0.7670746019460673
 21
0.1511716099686602
 72
     1
 10
0.7670746019460668
 20
0.15117160996866
 11
0.7639962288528581
 21
0.1595671729501399
 72
     1
 10
0.7639962288528582
 20
0.15956717295014
 11
0.7606380036602665
 21
0.1686157241635125
 72
     1
 10
0.7606380036602652
 20
0.1686157241635125
 11
0.7572797784676718
 21
0.1778508434431408
 72
     1
 10
0.7572797784676726
 20
0.1778508434431408
 11
0.753921553275081
 21
0.187179246755896
 72
     1
 10
0.7539215532750814
 20
0.1871792467558961
 11
0.7505633280824898
 21
0.1962277979692689
 72
     1
 10
0.7505633280824902
 20
0.1962277979692689
 11
0.7474849549892814
 21
0.2046233609507488
 72
     1
 10
0.7474849549892797
 20
0.2046233609507488
 11
0.74477971802858
 21
0.2121793676340809
 72
     1
 10
0.7447797180285814
 20
0.2121793676340809
 11
0.7424476172003926
 21
0.2185226818867544
 72
     1
 10
0.7424476172003929
 20
0.2185226818867545
 11
0.7405819365378416
 21
0.2234667356425151
 72
     1
 10
0.7405819365378408
 20
0.2234667356425151
 11
0.7394625281403098
 21
0.2266383927688516
 72
     1
 10
0.7394625281403103
 20
0.2266383927688516
 11
0.7390893920078009
 21
0.2277578011663822
 72
     1
 10
0.7390893920078004
 20
0.2277578011663825
 11
0.7191266089185034
 21
0.2277578011663825
 72
     1
 10
0.7191266089185029
 20
0.2277578011663825
 11
0.6843316645619254
 21
0.1336342117406798
 72
     1
 10
0.6843316645619267
 20
0.1336342117406795
 11
0.6832122561643957
 21
0.130649122680598
 72
     1
 10
0.6832122561643961
 20
0.1306491226805981
 11
0.6823726998662476
 21
0.1282237378192816
 72
     1
 10
0.6823726998662468
 20
0.1282237378192818
 11
0.6817197116343549
 21
0.1260782050573481
 72
     1
 10
0.6817197116343552
 20
0.1260782050573481
 11
0.6811600074355896
 21
0.1241192403616695
 72
     1
 10
0.6811600074355884
 20
0.1241192403616695
 11
0.6808801553362055
 21
0.1250520806929446
 72
     1
 10
0.6808801553362059
 20
0.1250520806929445
 11
0.6805070192036949
 21
0.1261714890904751
 72
     1
 10
0.680507019203696
 20
0.1261714890904752
 11
0.6802271671043131
 21
0.1272908974880058
 72
     1
 10
0.680227167104313
 20
0.1272908974880061
 11
0.6798540309718037
 21
0.1286901579849195
 72
     1
 10
0.6798540309718031
 20
0.1286901579849194
 11
0.6794808948392922
 21
0.12980956638245
 72
     1
 10
0.6794808948392932
 20
0.1298095663824503
 11
0.6784547704748904
 21
0.1328879394756595
 72
     1
 10
0.67845477047489
 20
0.1328879394756595
 11
0.6769622259448497
 21
0.1378319932314196
 72
     1
 10
0.6769622259448496
 20
0.1378319932314196
 11
0.6750032612491701
 21
0.1441753074840938
 72
     1
 10
0.6750032612491697
 20
0.1441753074840937
 11
0.6725778763878547
 21
0.1516380301342981
 72
     1
 10
0.6725778763878556
 20
0.1516380301342981
 11
0.6699659234602841
 21
0.160033593115778
 72
     1
 10
0.6699659234602829
 20
0.160033593115778
 11
0.6671674024664549
 21
0.168988860296023
 72
     1
 10
0.6671674024664554
 20
0.168988860296023
 11
0.6642755974395012
 21
0.1782239795756509
 72
     1
 10
0.6642755974395019
 20
0.178223979575651
 11
0.6613837924125477
 21
0.1874590988552789
 72
     1
 10
0.6613837924125466
 20
0.1874590988552789
 11
0.6585852714187205
 21
0.1964143660355239
 72
     1
 10
0.6585852714187204
 20
0.1964143660355237
 11
0.6559733184911489
 21
0.2047166449838762
 72
     1
 10
0.6559733184911494
 20
0.2047166449838765
 11
0.6536412176629606
 21
0.2122726516672082
 72
     1
 10
0.6536412176629614
 20
0.2122726516672082
 11
0.6515889689341538
 21
0.2186159659198823
 72
     1
 10
0.6515889689341537
 20
0.2186159659198821
 11
0.6500964244041133
 21
0.2234667356425149
 72
     1
 10
0.6500964244041132
 20
0.2234667356425151
 11
0.6490703000397104
 21
0.2266383927688516
 72
     1
 10
0.6490703000397105
 20
0.2266383927688516
 11
0.6487904479403276
 21
0.2277578011663822
 72
     1
 10
0.648790447940328
 20
0.2277578011663825
 11
0.6237903270621445
 21
0.2277578011663825
 72
     1
 10
0.6237903270621437
 20
0.2277578011663825
 11
0.6676338226320932
 21
0.0926825211976832
 72
     1
 10
0.6676338226320926
 20
0.0926825211976832
 11
0.6922608073777669
 21
0.0926825211976832
 72
     1
 10
0.6922608073777666
 20
0.0926825211976832
 11
0.726029627369941
 21
0.1855001341596003
 72
     1
 10
0.7260296273699423
 20
0.1855001341596003
 11
0.7269624677012189
 21
0.1882986551534267
 72
     1
 10
0.7269624677012177
 20
0.1882986551534266
 11
0.7278020239993661
 21
0.1906307559816158
 72
     1
 10
0.727802023999367
 20
0.1906307559816159
 11
0.7284550122312589
 21
0.1927762887435496
 72
     1
 10
0.7284550122312581
 20
0.1927762887435495
 11
0.7290147164300237
 21
0.1947352534392281
 72
     1
 10
0.7290147164300232
 20
0.1947352534392282
 11
0.7298542727281716
 21
0.192216584544784
 72
     1
 10
0.729854272728173
 20
0.1922165845447839
 11
0.7306938290263214
 21
0.1894180635509575
 72
     1
 10
0.7306938290263206
 20
0.1894180635509575
 11
0.7318132374238499
 21
0.1863396904577483
 72
     1
 10
0.7318132374238511
 20
0.1863396904577481
 11
0.7331192138876387
 21
0.1827016131657736
 72
     1
 10
0.7331192138876382
 20
0.1827016131657737
 11
0.7654887733828987
 21
0.0926825211976834
 72
     1
 10
0.7654887733828986
 20
0.0926825211976832
 11
0.7895560539298075
 21
0.0926825211976832
 72
     1
 10
0.7895560539298075
 20
0.0926825211976832
 11
0.8341458217647785
 21
0.2277578011663825
 72
     1
 10
0.8341458217647783
 20
0.2277578011663825
 11
0.830601028505932
 21
0.2277578011663825
 72
     1
 10
0.8306010285059324
 20
0.2277578011663825
 11
0.8092389849197216
 21
0.2277578011663825
 97
        0
 75
     0
 76
     1
 98
        1
 10
-0.3743130907707726
 20
-0.2500502867693841
450
        0
451
        0
460
0.0
461
0.0
452
        0
462
0.0
453
        0
470

1001
ACAD
1010
0.0
1020
0.0
1030
0.0
  0
ENDBLK
  5
124EE
330
124E1
100
AcDbEntity
  8
0
100
AcDbBlockEnd
  0
ENDSEC
  0
SECTION
  2
ENTITIES
  0
LINE
  5
5E22
330
6C
100
AcDbEntity
  8
DEFPOINTS
 62
   251
100
AcDbLine
 10
0.0
 20
0.0
 30
0.0
 11
17.0
 21
0.0
 31
0.0
  0
LINE
  5
5E23
330
6C
100
AcDbEntity
  8
DEFPOINTS
 62
   251
100
AcDbLine
 10
0.0
 20
0.0
 30
0.0
 11
0.0
 21
11.0
 31
0.0
  0
LWPOLYLINE
  5
5E25
330
6C
100
AcDbEntity
  8
FORMAT
100
AcDbPolyline
 90
        3
 70
     0
 43
0.0
 10
109.675907924647
 20
0.375
 10
0.375
 20
0.375
 10
0.375
 20
69.86732034386671
  0
LINE
  5
5E29
330
6C
100
AcDbEntity
  8
DEFPOINTS
 62
   251
100
AcDbLine
 10
1.375
 20
2.875
 30
0.0
 11
1.375
 21
0.0
 31
0.0
  0
LINE
  5
5E2A
330
6C
100
AcDbEntity
  8
DEFPOINTS
 62
   251
100
AcDbLine
 10
30.375
 20
2.375
 30
0.0
 11
0.0
 21
2.375
 31
0.0
  0
LINE
  5
5E2B
330
6C
100
AcDbEntity
  8
DEFPOINTS
 62
   251
100
AcDbLine
 10
1.375
 20
2.875
 30
0.0
 11
0.0
 21
2.875
 31
0.0
  0
LINE
  5
5E34
330
6C
100
AcDbEntity
  8
DEFPOINTS
 62
   251
100
AcDbLine
 10
0.375
 20
65.99999999999998
 30
0.0
 11
102.0
 21
65.99999999999998
 31
0.0
  0
LINE
  5
5E35
330
6C
100
AcDbEntity
  8
DEFPOINTS
 62
   251
100
AcDbLine
 10
102.0
 20
0.375
 30
0.0
 11
102.0
 21
65.99999999999998
 31
0.0
  0
LINE
  5
618F
330
6C
100
AcDbEntity
  8
DEFPOINTS
100
AcDbLine
 10
37.08151958734384
 20
11.375
 30
0.0
 11
101.6635441314041
 21
11.375
 31
0.0
  0
LINE
  5
6219
330
6C
100
AcDbEntity
  8
DEFPOINTS
100
AcDbLine
 10
50.37499999999289
 20
36.375
 30
0.0
 11
50.37499999999289
 21
0.375
 31
0.0
  0
LINE
  5
6365
330
6C
100
AcDbEntity
  8
DEFPOINTS
100
AcDbLine
 10
59.37499999999289
 20
36.375
 30
0.0
 11
59.37499999999289
 21
0.375
 31
0.0
  0
LINE
  5
643C
330
6C
100
AcDbEntity
  8
DEFPOINTS
100
AcDbLine
 10
68.37499999999282
 20
36.375
 30
0.0
 11
68.37499999999289
 21
0.375
 31
0.0
  0
LINE
  5
64A2
330
6C
100
AcDbEntity
  8
DEFPOINTS
100
AcDbLine
 10
77.3749999999929
 20
52.70018173757243
 30
0.0
 11
77.3749999999929
 21
0.375
 31
0.0
  0
LINE
  5
64EF
330
6C
100
AcDbEntity
  8
DEFPOINTS
100
AcDbLine
 10
86.37499999999286
 20
36.375
 30
0.0
 11
86.37499999999292
 21
0.375
 31
0.0
  0
LINE
  5
65BF
330
6C
100
AcDbEntity
  8
DEFPOINTS
100
AcDbLine
 10
95.37499999999289
 20
36.375
 30
0.0
 11
95.37499999999289
 21
0.375
 31
0.0
  0
LINE
  5
67E8
330
6C
100
AcDbEntity
  8
DEFPOINTS
 62
   251
100
AcDbLine
 10
0.375
 20
61.375
 30
0.0
 11
48.87500000000001
 21
61.375
 31
0.0
  0
LINE
  5
6E7F
330
6C
100
AcDbEntity
  8
DEFPOINTS
100
AcDbLine
 10
37.08151958734384
 20
7.375
 30
0.0
 11
101.6635441314041
 21
7.374999999999999
 31
0.0
  0
LINE
  5
6E80
330
6C
100
AcDbEntity
  8
DEFPOINTS
100
AcDbLine
 10
37.08151958734384
 20
18.375
 30
0.0
 11
101.6635441314041
 21
18.37499999999999
 31
0.0
  0
LINE
  5
6E82
330
6C
100
AcDbEntity
  8
DEFPOINTS
100
AcDbLine
 10
12.375
 20
65.99999999999998
 30
0.0
 11
12.375
 21
28.0443558132266
 31
0.0
  0
LINE
  5
6E83
330
6C
100
AcDbEntity
  8
DEFPOINTS
100
AcDbLine
 10
5.375
 20
65.99999999999998
 30
0.0
 11
5.375
 21
28.0443558132266
 31
0.0
  0
LINE
  5
6FCD
330
6C
100
AcDbEntity
  8
DEFPOINTS
100
AcDbLine
 10
41.37499999999288
 20
36.375
 30
0.0
 11
41.37499999999288
 21
0.375
 31
0.0
  0
LINE
  5
7076
330
6C
100
AcDbEntity
  8
DEFPOINTS
 62
   251
100
AcDbLine
 10
0.375
 20
52.375
 30
0.0
 11
48.87500000000001
 21
52.375
 31
0.0
  0
LINE
  5
749C
330
6C
100
AcDbEntity
  8
DEFPOINTS
 62
   251
100
AcDbLine
 10
0.375
 20
43.375
 30
0.0
 11
48.87500000000001
 21
43.375
 31
0.0
  0
LINE
  5
74B9
330
6C
100
AcDbEntity
  8
DEFPOINTS
 62
   251
100
AcDbLine
 10
0.375
 20
34.375
 30
0.0
 11
48.87499999999999
 21
34.375
 31
0.0
  0
LINE
  5
9780
330
6C
100
AcDbEntity
  8
DEFPOINTS
100
AcDbLine
 10
19.875
 20
65.99999999999998
 30
0.0
 11
19.87499999999998
 21
28.0443558132266
 31
0.0
  0
LINE
  5
AE05
330
6C
100
AcDbEntity
  8
DEFPOINTS
100
AcDbLine
 10
40.375
 20
65.99999999999998
 30
0.0
 11
40.375
 21
28.0443558132266
 31
0.0
  0
LINE
  5
AE06
330
6C
100
AcDbEntity
  8
DEFPOINTS
100
AcDbLine
 10
47.875
 20
65.99999999999998
 30
0.0
 11
47.87499999999998
 21
28.0443558132266
 31
0.0
  0
LINE
  5
AE07
330
6C
100
AcDbEntity
  8
DEFPOINTS
100
AcDbLine
 10
33.375
 20
65.99999999999998
 30
0.0
 11
33.375
 21
28.0443558132266
 31
0.0
  0
LINE
  5
B8EE
330
6C
100
AcDbEntity
  8
DEFPOINTS
100
AcDbLine
 10
37.08151958734384
 20
36.375
 30
0.0
 11
101.6635441314041
 21
36.375
 31
0.0
  0
LINE
  5
B8EF
330
6C
100
AcDbEntity
  8
DEFPOINTS
100
AcDbLine
 10
37.08151958734384
 20
29.375
 30
0.0
 11
101.6635441314041
 21
29.375
 31
0.0
  0
LINE
  5
B8F0
330
6C
100
AcDbEntity
  8
DEFPOINTS
100
AcDbLine
 10
37.08151958734384
 20
25.375
 30
0.0
 11
101.6635441314041
 21
25.375
 31
0.0
  0
LINE
  5
DA8F
330
6C
100
AcDbEntity
  8
DEFPOINTS
 62
   251
100
AcDbLine
 10
25.37499999999999
 20
7.375000000000002
 30
0.0
 11
25.375
 21
0.3750000000000029
 31
0.0
  0
POINT
  5
117A4
330
6C
100
AcDbEntity
  8
INSERTION_PT
100
AcDbPoint
 10
21.7302175885219
 20
53.43096796587277
 30
0.0
  0
LINE
  5
117A5
330
6C
100
AcDbEntity
  8
0
100
AcDbLine
 10
21.02017227175779
 20
48.24296796587276
 30
0.0
 11
14.85517300894253
 21
48.24287880671404
 31
0.0
  0
DIMENSION
  5
117A6
330
6C
100
AcDbEntity
  8
DIME
100
AcDbDimension
280
     0
  2
*D4
 10
20.85517300894252
 20
59.90755404479902
 30
0.0
 11
17.85512842936315
 21
60.13519729172944
 31
0.0
 70
    32
 71
     5
 42
6.000089159158733
 73
     0
 74
     0
 75
     0
  3
EXT_ON-ON
100
AcDbAlignedDimension
 13
14.85508384978379
 23
57.74287880671403
 33
0.0
 14
20.85517300894252
 24
57.74287880671403
 34
0.0
100
AcDbRotatedDimension
  0
LWPOLYLINE
  5
117A7
330
6C
100
AcDbEntity
  8
0
100
AcDbPolyline
 90
        7
 70
     1
 43
0.0
 10
20.74328869128178
 20
54.13130319386158
 10
20.74328869128178
 20
54.85480319386158
 10
20.61828869128179
 20
54.85480319386158
 10
20.61828869128178
 20
54.13130319386159
 42
0.4142135623730978
 10
20.74328869128178
 20
54.00630319386158
 10
21.46678869128178
 20
54.00630319386158
 10
21.46678869128178
 20
54.13130319386159
  0
LINE
  5
117A8
330
6C
100
AcDbEntity
  8
0
100
AcDbLine
 10
15.09158329332275
 20
48.48273514028198
 30
0.0
 11
20.66514568788822
 21
54.05300823817725
 31
0.0
  0
LWPOLYLINE
  5
117A9
330
6C
100
AcDbEntity
  8
0
100
AcDbPolyline
 90
        6
 70
     0
 43
0.0
 10
21.22288076017779
 20
57.74287880671403
 10
17.95524689695794
 20
57.74287880671403
 10
17.90522689695794
 20
57.94285880671403
 10
17.80524689695794
 20
57.54287880671403
 10
17.75524689695794
 20
57.74287880671403
 10
14.4325323984695
 20
57.74287880671403
  0
LINE
  5
117AA
330
6C
100
AcDbEntity
  8
0
100
AcDbLine
 10
14.85508384978379
 20
55.72787880671404
 30
0.0
 11
14.85508384978379
 21
57.74287880671403
 31
0.0
  0
LINE
  5
117AB
330
6C
100
AcDbEntity
  8
0
100
AcDbLine
 10
14.85517300894252
 20
54.40787880671404
 30
0.0
 11
14.85517300894253
 21
48.2429233862934
 31
0.0
  0
LINE
  5
117AC
330
6C
100
AcDbEntity
  8
0
100
AcDbLine
 10
14.85517300894253
 20
48.2429233862934
 30
0.0
 11
15.00337345605689
 21
48.39112383340776
 31
0.0
  0
DIMENSION
  5
117AD
330
6C
100
AcDbEntity
  8
DIME
100
AcDbDimension
280
     0
  2
*D5
 10
24.35517227175779
 20
58.65755404479902
 30
0.0
 11
23.35517227175779
 21
58.88690261232972
 31
0.0
 70
    32
  1
DLO
 71
     5
 42
2.000000000000007
 73
     0
 74
     0
 75
     0
  3
EXT_ON-OFF
100
AcDbAlignedDimension
 13
22.35517227175779
 23
54.24296796587277
 33
0.0
 14
24.35517227175779
 24
54.24296796587277
 34
0.0
100
AcDbRotatedDimension
  0
DIMENSION
  5
117AE
330
6C
100
AcDbEntity
  8
DIME
100
AcDbDimension
280
     0
  2
*D6
 10
24.35517227175779
 20
59.28255404479902
 30
0.0
 11
22.60517264035016
 21
59.50755404479902
 31
0.0
 70
    32
  1
F.W.
 71
     5
 42
3.499999262815272
 73
     0
 74
     0
 75
     0
  3
EXT_ON-OFF
100
AcDbAlignedDimension
 13
20.85517300894252
 23
57.74287880671403
 33
0.0
 14
24.35517227175779
 24
54.56033138822896
 34
0.0
100
AcDbRotatedDimension
  0
DIMENSION
  5
117AF
330
6C
100
AcDbEntity
  8
DIME
100
AcDbDimension
280
     0
  2
*D7
 10
24.35517227175779
 20
59.90755404479902
 30
0.0
 11
22.60517264035016
 21
60.13690261232972
 31
0.0
 70
    32
  1
O.D.
 71
     5
 42
3.499999262815272
 73
     0
 74
     0
 75
     0
  3
EXT_ON-OFF
100
AcDbAlignedDimension
 13
20.85517300894252
 23
57.74287880671403
 33
0.0
 14
24.35517227175779
 24
54.56033138822896
 34
0.0
100
AcDbRotatedDimension
  0
DIMENSION
  5
117B0
330
6C
100
AcDbEntity
  8
DIME
100
AcDbDimension
280
     0
  2
*D8
 10
25.48433013359586
 20
54.24296796587278
 30
0.0
 11
25.25506683209516
 21
54.99292338629341
 31
0.0
 70
    32
 71
     5
 42
1.499910840841252
 73
     0
 74
     0
 75
     0
  3
EXT_ON-ON
100
AcDbAlignedDimension
 13
20.85517605679463
 23
55.74287880671404
 33
0.0
 14
24.35517227175779
 24
54.24296796587278
 34
0.0
 50
270.0
100
AcDbRotatedDimension
  0
LINE
  5
117B1
330
6C
100
AcDbEntity
  8
0
100
AcDbLine
 10
20.85517300894252
 20
54.24292341260251
 30
0.0
 11
20.85517300894252
 21
57.74287880671403
 31
0.0
  0
DIMENSION
  5
117B2
330
6C
100
AcDbEntity
  8
DIME
100
AcDbDimension
280
     0
  2
*D9
 10
22.35517227175779
 20
58.65755404479902
 30
0.0
 11
21.60517264035016
 21
58.88681734629971
 31
0.0
 70
    32
 71
     5
 42
1.499999262815265
 73
     0
 74
     0
 75
     0
  3
EXT_ON-ON
100
AcDbAlignedDimension
 13
20.85517300894252
 23
57.74287880671403
 33
0.0
 14
22.35517227175779
 24
54.24296796587277
 34
0.0
100
AcDbRotatedDimension
  0
LWPOLYLINE
  5
117B3
330
6C
100
AcDbEntity
  8
0
100
AcDbPolyline
 90
        6
 70
     0
 43
0.0
 10
24.35517227175779
 20
54.56150834426757
 10
24.35517227175779
 20
51.3442188099268
 10
24.55515227175779
 20
51.2941988099268
 10
24.15517227175779
 20
51.19421880992679
 10
24.35517227175779
 20
51.14421880992679
 10
24.35517227175779
 20
47.84704808483474
  0
LINE
  5
117B4
330
6C
100
AcDbEntity
  8
0
100
AcDbLine
 10
20.85521758852189
 20
54.24296796587277
 30
0.0
 11
24.35517227175779
 21
54.24296796587277
 31
0.0
  0
LINE
  5
117B5
330
6C
100
AcDbEntity
  8
0
100
AcDbLine
 10
22.21521758852178
 20
48.24287880671404
 30
0.0
 11
24.35517227175779
 21
48.24287880671404
 31
0.0
  0
LEADER
  5
117B6
330
6C
100
AcDbEntity
  8
TEXT
100
AcDbLeader
  3
STANDARD
 76
     3
 10
20.6467409141848
 20
54.15829130505339
 30
0.0
 10
14.26483969931504
 20
52.7788822041387
 30
0.0
 10
14.07733969931504
 20
52.7788822041387
 30
0.0
  0
LEADER
  5
117B7
330
6C
100
AcDbEntity
  8
TEXT
100
AcDbLeader
  3
STANDARD
 76
     3
 10
14.97248198029449
 20
48.68254932249151
 30
0.0
 10
14.10917439155958
 20
48.4814580306762
 30
0.0
 10
13.92167439155957
 20
48.4814580306762
 30
0.0
  0
MTEXT
  5
117B8
102
{ACAD_XDICTIONARY
360
126CC
102
}
330
6C
100
AcDbEntity
  8
TEXT
100
AcDbMText
 10
11.84354011492259
 20
52.66576492493237
 30
0.0
 40
0.25
 41
2.035117137805199
 46
0.0
 71
     7
 72
     5
  1
\pxqr; BR-??\P0.125 ALUM.   BRAKE
 73
     1
 44
1.0
  0
MTEXT
  5
117B9
102
{ACAD_XDICTIONARY
360
126CE
102
}
330
6C
100
AcDbEntity
  8
TEXT
100
AcDbMText
 10
11.59245896223226
 20
48.36834075146988
 30
0.0
 40
0.25
 41
2.236617111277821
 46
0.0
 71
     7
 72
     5
  1
\pxqr; BR-??\P0.125 ALUM.   BRAKE
 73
     1
 44
1.0
  0
LWPOLYLINE
  5
117BA
330
6C
100
AcDbEntity
  8
0
100
AcDbPolyline
 90
        7
 70
     1
 43
0.0
 10
15.09158329332276
 20
48.35469033164231
 10
21.46658787290212
 20
48.35469033164231
 10
21.46658787290212
 20
48.47969033164232
 10
15.09158329332275
 20
48.47969033164232
 10
15.09158329332275
 20
54.85469499906163
 10
14.96658329332275
 20
54.85471423998879
 10
14.96658329332276
 20
48.47969033164231
 42
0.4142135623730947
  0
DIMENSION
  5
117BB
330
6C
100
AcDbEntity
  8
DIME
100
AcDbDimension
280
     0
  2
*D10
 10
26.1093585032495
 20
57.74287880671403
 30
0.0
 11
25.88435850324948
 21
55.9929233862934
 31
0.0
 70
    32
  1
F.W.
 71
     5
 42
3.499910840841266
 73
     0
 74
     0
 75
     0
  3
EXT_ON-OFF
100
AcDbAlignedDimension
 13
24.35517227175779
 23
54.24296796587277
 33
0.0
 14
20.85517300894252
 24
57.74287880671403
 34
0.0
 50
90.0
100
AcDbRotatedDimension
  0
DIMENSION
  5
117BC
330
6C
100
AcDbEntity
  8
DIME
100
AcDbDimension
280
     0
  2
*D11
 10
25.48432722816425
 20
57.74287880671403
 30
0.0
 11
25.25497866063354
 21
56.74287880671404
 31
0.0
 70
    32
  1
DLO
 71
     5
 42
1.999999999999992
 73
     0
 74
     0
 75
     0
  3
EXT_ON-OFF
100
AcDbAlignedDimension
 13
20.85517300894252
 23
55.74287880671404
 33
0.0
 14
20.85517300894252
 24
57.74287880671403
 34
0.0
 50
90.0
100
AcDbRotatedDimension
  0
DIMENSION
  5
117BD
330
6C
100
AcDbEntity
  8
DIME
100
AcDbDimension
280
     0
  2
*D12
 10
26.7343189809416
 20
57.74287880671403
 30
0.0
 11
26.5049704134109
 21
55.9929233862934
 31
0.0
 70
    32
  1
O.D.
 71
     5
 42
3.499910840841266
 73
     0
 74
     0
 75
     0
  3
EXT_ON-OFF
100
AcDbAlignedDimension
 13
24.35517227175779
 23
54.24296796587277
 33
0.0
 14
20.85517300894252
 24
57.74287880671403
 34
0.0
 50
90.0
100
AcDbRotatedDimension
  0
INSERT
  5
117BE
330
6C
100
AcDbEntity
  8
0
100
AcDbBlockReference
  2
B601TCG010
 10
21.35696052132723
 20
49.99296296587282
 30
0.0
 41
-1.0
  0
INSERT
  5
117BF
330
6C
100
AcDbEntity
  8
0
100
AcDbBlockReference
  2
B601TCG010
 10
16.60516800894257
 20
54.74466705628348
 30
0.0
 50
270.0
  0
LINE
  5
117C0
330
6C
100
AcDbEntity
  8
0
100
AcDbLine
 10
24.35517227175779
 20
47.96201671083398
 30
0.0
 11
14.57417300894253
 21
47.96187474281984
 31
0.0
  0
LINE
  5
117C1
330
6C
100
AcDbEntity
  8
0
100
AcDbLine
 10
20.74348687745236
 20
54.13130319386158
 30
0.0
 11
21.03932624218692
 21
54.42696796587276
 31
0.0
  0
LINE
  5
117C2
330
6C
100
AcDbEntity
  8
0
100
AcDbLine
 10
14.57417300894253
 20
57.74287880671403
 30
0.0
 11
14.57417300894253
 21
47.96187474281984
 31
0.0
  0
LINE
  5
117C3
330
6C
100
AcDbEntity
  8
0
100
AcDbLine
 10
14.57417300894253
 20
47.9619233862934
 30
0.0
 11
15.00337345605689
 21
48.39112383340776
 31
0.0
  0
LINE
  5
117C4
330
6C
100
AcDbEntity
  8
0
100
AcDbLine
 10
21.03917300894252
 20
54.42696796587276
 30
0.0
 11
21.03917300894252
 21
57.74287880671403
 31
0.0
  0
LINE
  5
117C5
330
6C
100
AcDbEntity
  8
0
100
AcDbLine
 10
21.03917300894252
 20
54.42696796587276
 30
0.0
 11
24.35517227175779
 21
54.42696796587276
 31
0.0
  0
DIMENSION
  5
117C6
330
6C
100
AcDbEntity
  8
DIME
100
AcDbDimension
280
     0
  2
*D13
 10
26.73431264901966
 20
54.24296796587277
 30
0.0
 11
26.50666940208923
 21
51.24292338629341
 31
0.0
 70
    32
 71
     5
 42
6.000089159158726
 73
     0
 74
     0
 75
     0
  3
EXT_ON-ON
100
AcDbAlignedDimension
 13
24.35517227175779
 23
48.24287880671404
 33
0.0
 14
24.35517227175779
 24
54.24296796587277
 34
0.0
 50
90.0
100
AcDbRotatedDimension
  0
INSERT
  5
11891
330
6C
100
AcDbEntity
  8
0
100
AcDbBlockReference
  2
gt100
 10
16.31419800894252
 20
55.48437880671404
 30
0.0
 50
90.0
  0
INSERT
  5
118D6
330
6C
100
AcDbEntity
  8
0
100
AcDbBlockReference
  2
gt100
 10
22.0966722717578
 20
51.28394296587276
 30
0.0
  0
MTEXT
  5
1191B
330
6C
100
AcDbEntity
  8
TEXT
100
AcDbMText
 10
13.92726213837869
 20
61.25541472258447
 30
0.0
 40
0.25
 41
9.478949894201232
 46
0.0
 71
     1
 72
     5
  1
601TCG010  FEMALE EXPANSION MULLION HALF
 73
     1
 44
1.0
  0
MTEXT
  5
1191C
330
6C
100
AcDbEntity
  8
TEXT
100
AcDbMText
 10
18.7579105719948
 20
47.49861631038864
 30
0.0
 40
0.375
 41
6.5
 46
0.0
 71
     2
 72
     5
  1
\P90%%D OUTSIDE CORNER\PWITH BRAKE METAL
 73
     1
 44
1.0
  0
POINT
  5
119C3
330
6C
100
AcDbEntity
  8
INSERTION_PT
100
AcDbPoint
 10
48.22218071987442
 20
52.30930674433663
 30
0.0
  0
LINE
  5
119C4
330
6C
100
AcDbEntity
  8
0
100
AcDbLine
 10
47.51213540311031
 20
57.49730674433664
 30
0.0
 11
41.34713614029505
 21
57.49739590349536
 31
0.0
  0
DIMENSION
  5
119C5
330
6C
100
AcDbEntity
  8
DIME
100
AcDbDimension
280
     0
  2
*D14
 10
47.34713614029504
 20
45.83272066541037
 30
0.0
 11
44.34709156071567
 21
46.06036391234079
 31
0.0
 70
    32
 71
     5
 42
6.000089159158733
 73
     0
 74
     0
 75
     0
  3
EXT_ON-ON
100
AcDbAlignedDimension
 13
41.34704698113631
 23
47.99739590349535
 33
0.0
 14
47.34713614029504
 24
47.99739590349535
 34
0.0
100
AcDbRotatedDimension
  0
LWPOLYLINE
  5
119C6
330
6C
100
AcDbEntity
  8
0
100
AcDbPolyline
 90
        7
 70
     1
 43
0.0
 10
41.45903774571824
 20
57.26092144296045
 10
41.45903774571824
 20
50.88591686338109
 10
41.58403774571824
 20
50.88591686338109
 10
41.58403774571824
 20
57.26092144296045
 10
47.95904241313755
 20
57.26092144296045
 10
47.95906165406472
 20
57.38592144296045
 10
41.58403774571824
 20
57.38592144296045
 42
0.4142135623730947
  0
LINE
  5
119C7
330
6C
100
AcDbEntity
  8
0
100
AcDbLine
 10
41.58403774571824
 20
57.25704853884275
 30
0.0
 11
47.15710881924073
 21
51.68726647203214
 31
0.0
  0
LWPOLYLINE
  5
119C8
330
6C
100
AcDbEntity
  8
0
100
AcDbPolyline
 90
        6
 70
     0
 43
0.0
 10
47.73820664590476
 20
47.99739590349535
 10
44.44721002831046
 20
47.99739590349535
 10
44.39719002831046
 20
47.79741590349535
 10
44.29721002831046
 20
48.19739590349535
 10
44.24721002831046
 20
47.99739590349535
 10
40.86203791779126
 20
47.99739590349535
  0
LINE
  5
119C9
330
6C
100
AcDbEntity
  8
0
100
AcDbLine
 10
41.34704698113631
 20
50.01239590349536
 30
0.0
 11
41.34704698113631
 21
47.99739590349535
 31
0.0
  0
LINE
  5
119CA
330
6C
100
AcDbEntity
  8
0
100
AcDbLine
 10
41.34713614029504
 20
51.33239590349536
 30
0.0
 11
41.34713614029505
 21
57.497351323916
 31
0.0
  0
LINE
  5
119CB
330
6C
100
AcDbEntity
  8
0
100
AcDbLine
 10
41.34713614029505
 20
57.497351323916
 30
0.0
 11
41.49541385053308
 21
57.34907361367796
 31
0.0
  0
DIMENSION
  5
119CC
330
6C
100
AcDbEntity
  8
DIME
100
AcDbDimension
280
     0
  2
*D15
 10
50.84713540311032
 20
47.08272066541037
 30
0.0
 11
49.84713540311031
 21
47.31206923294106
 31
0.0
 70
    32
  1
DLO
 71
     5
 42
2.000000000000007
 73
     0
 74
     0
 75
     0
  3
EXT_ON-OFF
100
AcDbAlignedDimension
 13
48.84713540311031
 23
51.49730674433663
 33
0.0
 14
50.84713540311032
 24
51.13000776901545
 34
0.0
100
AcDbRotatedDimension
  0
DIMENSION
  5
119CD
330
6C
100
AcDbEntity
  8
DIME
100
AcDbDimension
280
     0
  2
*D16
 10
50.84713540311032
 20
46.45772066541037
 30
0.0
 11
49.09713577170268
 21
46.68272066541037
 31
0.0
 70
    32
  1
F.W.
 71
     5
 42
3.499999262815272
 73
     0
 74
     0
 75
     0
  3
EXT_ON-OFF
100
AcDbAlignedDimension
 13
47.34713614029504
 23
47.99739590349535
 33
0.0
 14
50.84713540311032
 24
51.13118472505405
 34
0.0
100
AcDbRotatedDimension
  0
DIMENSION
  5
119CE
330
6C
100
AcDbEntity
  8
DIME
100
AcDbDimension
280
     0
  2
*D17
 10
50.84713540311032
 20
45.83272066541037
 30
0.0
 11
49.09713577170268
 21
46.06206923294106
 31
0.0
 70
    32
  1
O.D.
 71
     5
 42
3.499999262815272
 73
     0
 74
     0
 75
     0
  3
EXT_ON-OFF
100
AcDbAlignedDimension
 13
47.34713614029504
 23
47.99739590349535
 33
0.0
 14
50.84713540311032
 24
51.13118472505405
 34
0.0
100
AcDbRotatedDimension
  0
DIMENSION
  5
119CF
330
6C
100
AcDbEntity
  8
DIME
100
AcDbDimension
280
     0
  2
*D18
 10
53.2262648978496
 20
47.99730059914528
 30
0.0
 11
52.99694469867954
 21
49.74728810557692
 31
0.0
 70
    32
  1
O.D.
 71
     5
 42
3.499967577556041
 73
     0
 74
     0
 75
     0
  3
EXT_ON-OFF
100
AcDbAlignedDimension
 13
50.84713540311032
 23
51.49730674433663
 33
0.0
 14
47.34713614029504
 24
47.99739590349535
 34
0.0
 50
89.99907119961932
100
AcDbRotatedDimension
  0
DIMENSION
  5
119D0
330
6C
100
AcDbEntity
  8
DIME
100
AcDbDimension
280
     0
  2
*D19
 10
52.60126489793169
 20
47.99731073078574
 30
0.0
 11
52.37629326629175
 21
49.74729816672439
 31
0.0
 70
    32
  1
F.W.
 71
     5
 42
3.499967577556041
 73
     0
 74
     0
 75
     0
  3
EXT_ON-OFF
100
AcDbAlignedDimension
 13
50.84713540311032
 23
51.49730674433663
 33
0.0
 14
47.34713614029504
 24
47.99739590349535
 34
0.0
 50
89.99907119961932
100
AcDbRotatedDimension
  0
DIMENSION
  5
119D1
330
6C
100
AcDbEntity
  8
DIME
100
AcDbDimension
280
     0
  2
*D20
 10
51.97629326494837
 20
51.49730674433661
 30
0.0
 11
51.74702996344768
 21
50.74735132391599
 31
0.0
 70
    32
 71
     5
 42
1.499910840841259
 73
     0
 74
     0
 75
     0
  3
EXT_ON-ON
100
AcDbAlignedDimension
 13
47.34713918814715
 23
49.99739590349536
 33
0.0
 14
50.84713540311032
 24
51.49730674433661
 34
0.0
 50
90.0
100
AcDbRotatedDimension
  0
DIMENSION
  5
119D2
330
6C
100
AcDbEntity
  8
DIME
100
AcDbDimension
280
     0
  2
*D21
 10
51.97625793826733
 20
47.99732086253903
 30
0.0
 11
51.74692558139151
 21
48.9973245801845
 31
0.0
 70
    32
  1
DLO
 71
     5
 42
1.999999999786631
 73
     0
 74
     0
 75
     0
  3
EXT_ON-OFF
100
AcDbAlignedDimension
 13
47.34713918814715
 23
49.99739590349536
 33
0.0
 14
47.34713614029504
 24
47.99739590349535
 34
0.0
 50
89.99907119961932
100
AcDbRotatedDimension
  0
LINE
  5
119D3
330
6C
100
AcDbEntity
  8
0
100
AcDbLine
 10
47.34713614029504
 20
51.49735129760689
 30
0.0
 11
47.34713614029504
 21
47.99739590349535
 31
0.0
  0
DIMENSION
  5
119D4
330
6C
100
AcDbEntity
  8
DIME
100
AcDbDimension
280
     0
  2
*D22
 10
48.84713540311031
 20
47.08272066541037
 30
0.0
 11
48.09713577170267
 21
47.31198396691104
 31
0.0
 70
    32
 71
     5
 42
1.499999262815265
 73
     0
 74
     0
 75
     0
  3
EXT_ON-ON
100
AcDbAlignedDimension
 13
47.34713614029504
 23
47.99739590349535
 33
0.0
 14
48.84713540311031
 24
51.49730674433663
 34
0.0
100
AcDbRotatedDimension
  0
LWPOLYLINE
  5
119D5
330
6C
100
AcDbEntity
  8
0
100
AcDbPolyline
 90
        6
 70
     0
 43
0.0
 10
50.84713540311032
 20
51.13000776901545
 10
50.84713540311032
 20
54.3960559002826
 10
51.04711540311031
 20
54.4460759002826
 10
50.64713540311031
 20
54.5460559002826
 10
50.84713540311032
 20
54.5960559002826
 10
50.84713540311032
 20
57.94956733380204
  0
DIMENSION
  5
119D6
330
6C
100
AcDbEntity
  8
DIME
100
AcDbDimension
280
     0
  2
*D23
 10
53.2262821122848
 20
51.49726817688214
 30
0.0
 11
52.99868749798116
 21
54.49731644591237
 31
0.0
 70
    32
 71
     5
 42
6.000089158370364
 73
     0
 74
     0
 75
     0
  3
EXT_ON-ON
100
AcDbAlignedDimension
 13
50.84713540311032
 23
57.49739590349536
 33
0.0
 14
50.84713540311032
 24
51.49730674433663
 34
0.0
 50
89.99907119961932
100
AcDbRotatedDimension
  0
LINE
  5
119D7
330
6C
100
AcDbEntity
  8
0
100
AcDbLine
 10
47.3471807198744
 20
51.49730674433663
 30
0.0
 11
50.84713540311032
 21
51.49730674433663
 31
0.0
  0
LINE
  5
119D8
330
6C
100
AcDbEntity
  8
0
100
AcDbLine
 10
48.70718071987429
 20
57.49739590349536
 30
0.0
 11
50.84713540311032
 21
57.49739590349536
 31
0.0
  0
LEADER
  5
119D9
330
6C
100
AcDbEntity
  8
TEXT
100
AcDbLeader
  3
STANDARD
 76
     3
 10
47.13870404553731
 20
51.58198340515601
 30
0.0
 10
40.75680283066756
 20
52.9613925060707
 30
0.0
 10
40.56930283066756
 20
52.9613925060707
 30
0.0
  0
LEADER
  5
119DA
330
6C
100
AcDbEntity
  8
TEXT
100
AcDbLeader
  3
STANDARD
 76
     3
 10
41.46444511164701
 20
55.72295544323743
 30
0.0
 10
40.6011375229121
 20
55.92404673505274
 30
0.0
 10
40.4136375229121
 20
55.92404673505274
 30
0.0
  0
MTEXT
  5
119DB
102
{ACAD_XDICTIONARY
360
126D0
102
}
330
6C
100
AcDbEntity
  8
TEXT
100
AcDbMText
 10
38.23648711884474
 20
53.07450978527702
 30
0.0
 40
0.25
 41
2.268012584311149
 46
0.0
 71
     1
 72
     5
  1
\pxqr; BR-??\P0.125 ALUM.   BRAKE
 73
     1
 44
1.0
  0
MTEXT
  5
119DC
102
{ACAD_XDICTIONARY
360
126D2
102
}
330
6C
100
AcDbEntity
  8
TEXT
100
AcDbMText
 10
38.20746312122367
 20
56.03716401425906
 30
0.0
 40
0.25
 41
2.009293399731076
 46
0.0
 71
     1
 72
     5
  1
\pxqr; BR-??\P0.125 ALUM.   BRAKE
 73
     1
 44
1.0
  0
LWPOLYLINE
  5
119DD
330
6C
100
AcDbEntity
  8
0
100
AcDbPolyline
 90
        7
 70
     1
 43
0.0
 10
47.23566133428533
 20
51.60922815173352
 10
47.95916133428534
 20
51.60922815173352
 10
47.95916133428534
 20
51.73422815173351
 10
47.23566133428533
 20
51.73422815173352
 42
0.4142135623730978
 10
47.11066133428533
 20
51.60922815173352
 10
47.11066133428533
 20
50.88572815173352
 10
47.23566133428534
 20
50.88572815173352
  0
INSERT
  5
119DE
330
6C
100
AcDbEntity
  8
0
100
AcDbBlockReference
  2
B601TCG010
 10
45.59714114029499
 20
50.99560765392592
 30
0.0
 50
90.00000000000003
  0
INSERT
  5
119DF
330
6C
100
AcDbEntity
  8
0
100
AcDbBlockReference
  2
B601TCG010
 10
47.84892365267975
 20
53.24730174433668
 30
0.0
 41
-1.0
  0
LINE
  5
119E0
330
6C
100
AcDbEntity
  8
0
100
AcDbLine
 10
50.84713540311032
 20
57.77839996738956
 30
0.0
 11
41.06613614029504
 21
57.77839996738956
 31
0.0
  0
LINE
  5
119E1
330
6C
100
AcDbEntity
  8
0
100
AcDbLine
 10
47.23566133428533
 20
51.60876031558333
 30
0.0
 11
47.53128937353944
 21
51.31330674433663
 31
0.0
  0
LINE
  5
119E2
330
6C
100
AcDbEntity
  8
0
100
AcDbLine
 10
41.06613614029504
 20
47.99739590349535
 30
0.0
 11
41.06613614029504
 21
57.77839996738956
 31
0.0
  0
LINE
  5
119E3
330
6C
100
AcDbEntity
  8
0
100
AcDbLine
 10
41.06613614029504
 20
57.778351323916
 30
0.0
 11
41.49541385053308
 21
57.34907361367796
 31
0.0
  0
LINE
  5
119E4
330
6C
100
AcDbEntity
  8
0
100
AcDbLine
 10
47.53113614029504
 20
51.31330674433662
 30
0.0
 11
47.53113614029504
 21
47.99739590349535
 31
0.0
  0
LINE
  5
119E5
330
6C
100
AcDbEntity
  8
0
100
AcDbLine
 10
47.53113614029504
 20
51.31330674433663
 30
0.0
 11
50.84713540311032
 21
51.31330674433663
 31
0.0
  0
INSERT
  5
11AB0
330
6C
100
AcDbEntity
  8
0
100
AcDbBlockReference
  2
gt100
 10
48.58863540311031
 20
54.53828174433663
 30
0.0
  0
MTEXT
  5
11B31
330
6C
100
AcDbEntity
  8
TEXT
100
AcDbMText
 10
40.91050789568868
 20
59.08435260919148
 30
0.0
 40
0.25
 41
9.478949894201232
 46
0.0
 71
     1
 72
     5
  1
601TCG010  FEMALE EXPANSION MULLION HALF
 73
     1
 44
1.0
  0
POINT
  5
11B66
330
6C
100
AcDbEntity
  8
INSERTION_PT
100
AcDbPoint
 10
70.36407216255693
 20
52.30930674433663
 30
0.0
 50
180.0
  0
LWPOLYLINE
  5
11B67
330
6C
100
AcDbEntity
  8
0
100
AcDbPolyline
 90
        4
 70
     0
 43
0.0
 10
72.44170820494554
 20
57.26092144296046
 10
70.6272104692938
 20
57.26092144296046
 10
70.62719122836664
 20
57.38592144296045
 10
72.44170820494556
 20
57.38592144296045
  0
LWPOLYLINE
  5
11B68
330
6C
100
AcDbEntity
  8
0
100
AcDbPolyline
 90
        6
 70
     0
 43
0.0
 10
67.73911747932105
 20
51.24612978829802
 10
67.73911747932105
 20
54.39605590028259
 10
67.53913747932106
 20
54.44607590028259
 10
67.93911747932106
 20
54.54605590028259
 10
67.73911747932105
 20
54.59605590028259
 10
67.73911747932105
 20
57.74717436787739
  0
LINE
  5
11B69
330
6C
100
AcDbEntity
  8
0
100
AcDbLine
 10
69.86407216255706
 20
51.49730674433663
 30
0.0
 11
67.73911747932105
 21
51.49730674433663
 31
0.0
  0
LINE
  5
11B6A
330
6C
100
AcDbEntity
  8
0
100
AcDbLine
 10
69.87907216255706
 20
57.49739590349536
 30
0.0
 11
67.73911747932105
 21
57.49739590349536
 31
0.0
  0
LEADER
  5
11B6C
330
6C
100
AcDbEntity
  8
TEXT
100
AcDbLeader
  3
STANDARD
 76
     3
 10
72.25309059244885
 20
57.38592144296045
 30
0.0
 10
71.47165257040325
 20
59.03881977565347
 30
0.0
 10
71.28415257040325
 20
59.03881977565347
 30
0.0
  0
MTEXT
  5
11B6E
102
{ACAD_XDICTIONARY
360
126D4
102
}
330
6C
100
AcDbEntity
  8
TEXT
100
AcDbMText
 10
69.07797816871482
 20
59.15193705485979
 30
0.0
 40
0.25
 41
2.009293399731076
 46
0.0
 71
     1
 72
     5
  1
\pxqr; BR-??\P0.125 ALUM.   BRAKE
 73
     1
 44
1.0
  0
LWPOLYLINE
  5
11B6F
330
6C
100
AcDbEntity
  8
0
100
AcDbPolyline
 90
        4
 70
     0
 43
0.0
 10
72.44170820494554
 20
51.60892144296045
 10
70.6272104692938
 20
51.60892144296045
 10
70.62719122836664
 20
51.73392144296046
 10
72.44170820494556
 20
51.73392144296046
  0
DIMENSION
  5
11B70
330
6C
100
AcDbEntity
  8
DIME
100
AcDbDimension
280
     0
  2
*D24
 10
67.73911747932105
 20
49.86846219475637
 30
0.0
 11
68.73911747932105
 21
50.09781076228706
 31
0.0
 70
    32
  1
DLO
 71
     5
 42
2.0
 73
     0
 74
     0
 75
     0
  3
EXT_ON-OFF
100
AcDbAlignedDimension
 13
69.73911747932105
 23
51.49730674433663
 33
0.0
 14
67.73911747932105
 24
51.49730674433663
 34
0.0
 50
180.0
100
AcDbRotatedDimension
  0
INSERT
  5
11B71
330
6C
100
AcDbEntity
  8
0
100
AcDbBlockReference
  2
B601TCG010
 10
70.7373292297516
 20
53.24730174433668
 30
0.0
  0
DIMENSION
  5
11B72
330
6C
100
AcDbEntity
  8
DIME
100
AcDbDimension
280
     0
  2
*D25
 10
65.35989463202617
 20
51.49730674433663
 30
0.0
 11
65.13225138509572
 21
54.497351323916
 31
0.0
 70
    32
 71
     5
 42
6.000089159158726
 73
     0
 74
     0
 75
     0
  3
EXT_ON-ON
100
AcDbAlignedDimension
 13
67.73911747932105
 23
57.49739590349536
 33
0.0
 14
67.73911747932105
 24
51.49730674433663
 34
0.0
 50
90.0
100
AcDbRotatedDimension
1001
ACAD
1000
DSTYLE
1002
{
1070
    90
1070
     1
1002
}
  0
INSERT
  5
11B9F
330
6C
100
AcDbEntity
  8
0
100
AcDbBlockReference
  2
gt100
 10
45.88811114029505
 20
50.25589590349535
 30
0.0
 50
270.0
  0
MTEXT
  5
11BE4
330
6C
100
AcDbEntity
  8
TEXT
100
AcDbMText
 10
44.59574085915426
 20
45.48970015899349
 30
0.0
 40
0.375
 41
6.5
 46
0.0
 71
     2
 72
     5
  1
\P90%%D INSIDE CORNER\PWITH BRAKE METAL
 73
     1
 44
1.0
  0
POINT
  5
11BE5
330
6C
100
AcDbEntity
  8
INSERTION_PT
100
AcDbPoint
 10
76.25460709835326
 20
52.30930674433663
 30
0.0
 50
0.000000000000007
  0
LWPOLYLINE
  5
11BE6
330
6C
100
AcDbEntity
  8
0
100
AcDbPolyline
 90
        4
 70
     0
 43
0.0
 10
74.17697105596466
 20
57.26092144296046
 10
75.9914687916164
 20
57.26092144296046
 10
75.99148803254355
 20
57.38592144296045
 10
74.17697105596464
 20
57.38592144296045
  0
LWPOLYLINE
  5
11BE7
330
6C
100
AcDbEntity
  8
0
100
AcDbPolyline
 90
        6
 70
     0
 43
0.0
 10
78.87956178158916
 20
51.24612978829802
 10
78.87956178158916
 20
54.39605590028259
 10
79.07954178158916
 20
54.44607590028259
 10
78.67956178158916
 20
54.54605590028259
 10
78.87956178158916
 20
54.59605590028259
 10
78.87956178158916
 20
57.74717436787739
  0
LINE
  5
11BE8
330
6C
100
AcDbEntity
  8
0
100
AcDbLine
 10
76.75460709835313
 20
51.49730674433663
 30
0.0
 11
78.87956178158916
 21
51.49730674433663
 31
0.0
  0
LINE
  5
11BE9
330
6C
100
AcDbEntity
  8
0
100
AcDbLine
 10
76.73960709835313
 20
57.49739590349536
 30
0.0
 11
78.87956178158916
 21
57.49739590349536
 31
0.0
  0
LEADER
  5
11BEA
330
6C
100
AcDbEntity
  8
TEXT
100
AcDbLeader
  3
STANDARD
 76
     3
 10
74.38490559555657
 20
51.60892144296045
 30
0.0
 10
74.78397941987144
 20
49.6385952821569
 30
0.0
 10
74.97147941987144
 20
49.6385952821569
 30
0.0
211
-1.0
221
0.0
231
0.0
  0
MTEXT
  5
11BEC
102
{ACAD_XDICTIONARY
360
126D6
102
}
330
6C
100
AcDbEntity
  8
TEXT
100
AcDbMText
 10
75.03628254738311
 20
49.75171256136323
 30
0.0
 40
0.25
 41
2.009293399731076
 46
0.0
 71
     1
 72
     5
  1
\pxql; BR-??\P0.125 ALUM.   BRAKE
 73
     1
 44
1.0
  0
LWPOLYLINE
  5
11BEE
330
6C
100
AcDbEntity
  8
0
100
AcDbPolyline
 90
        4
 70
     0
 43
0.0
 10
74.17697105596466
 20
51.60892144296045
 10
75.9914687916164
 20
51.60892144296045
 10
75.99148803254355
 20
51.73392144296046
 10
74.17697105596464
 20
51.73392144296046
  0
DIMENSION
  5
11BEF
330
6C
100
AcDbEntity
  8
DIME
100
AcDbDimension
280
     0
  2
*D26
 10
78.87956178158916
 20
49.86846219475637
 30
0.0
 11
77.87956178158916
 21
50.09781076228706
 31
0.0
 70
    32
  1
DLO
 71
     5
 42
2.000000000000014
 73
     0
 74
     0
 75
     0
  3
EXT_ON-OFF
100
AcDbAlignedDimension
 13
76.87956178158914
 23
51.49730674433663
 33
0.0
 14
78.87956178158916
 24
51.24612978829802
 34
0.0
 50
0.000000000000007
100
AcDbRotatedDimension
  0
INSERT
  5
11BF0
330
6C
100
AcDbEntity
  8
0
100
AcDbBlockReference
  2
B601TCG010
 10
75.88135003115858
 20
53.24730174433668
 30
0.0
 41
-1.0
  0
DIMENSION
  5
11BF1
330
6C
100
AcDbEntity
  8
DIME
100
AcDbDimension
280
     0
  2
*D27
 10
81.25878462888403
 20
51.49730674433662
 30
0.0
 11
81.03114138195358
 21
54.497351323916
 31
0.0
 70
    32
 71
     5
 42
6.000089159158726
 73
     0
 74
     0
 75
     0
  3
EXT_ON-ON
100
AcDbAlignedDimension
 13
78.87956178158916
 23
57.49739590349536
 33
0.0
 14
78.87956178158916
 24
51.49730674433663
 34
0.0
 50
90.0
100
AcDbRotatedDimension
1001
ACAD
1000
DSTYLE
1002
{
1070
    90
1070
     1
1002
}
  0
MTEXT
  5
11C1A
330
6C
100
AcDbEntity
  8
TEXT
100
AcDbMText
 10
69.37861527469966
 20
60.32714692183143
 30
0.0
 40
0.25
 41
9.478949894201232
 46
0.0
 71
     1
 72
     5
  1
601TCG010  FEMALE EXPANSION MULLION HALF
 73
     1
 44
1.0
  0
INSERT
  5
11C1B
330
6C
100
AcDbEntity
  8
0
100
AcDbBlockReference
  2
gt100
 10
76.62106178158916
 20
54.53828174433663
 30
0.0
  0
INSERT
  5
11C3F
330
6C
100
AcDbEntity
  8
0
100
AcDbBlockReference
  2
gt100
 10
69.99761747932105
 20
54.53828174433663
 30
0.0
 41
-1.0
  0
MTEXT
  5
11C5B
330
6C
100
AcDbEntity
  8
TEXT
100
AcDbMText
 10
73.71136593295381
 20
48.00177588787696
 30
0.0
 40
0.375
 41
7.720494977050535
 46
2.248433282106407
 71
     2
 72
     5
  1
\PVARIABLE DEGREE CORNER\PWITH BRAKE METAL
 73
     1
 44
1.0
1001
ACAD
1000
ACAD_MTEXT_DEFINED_HEIGHT_BEGIN
1070
    46
1040
2.248433282106407
1000
ACAD_MTEXT_DEFINED_HEIGHT_END
  0
LINE
  5
11D31
330
6C
100
AcDbEntity
  8
0
100
AcDbLine
 10
19.03869984197977
 20
30.98857919365548
 30
0.0
 11
18.27978096984569
 21
30.67501464606927
 31
0.0
  0
LINE
  5
11D32
330
6C
100
AcDbEntity
  8
0
100
AcDbLine
 10
19.08652688880397
 20
30.87309078626392
 30
0.0
 11
18.31710097052514
 21
30.55462093294265
 31
0.0
  0
LINE
  5
11D33
330
6C
100
AcDbEntity
  8
0
100
AcDbLine
 10
17.52326681516465
 20
30.98919148496542
 30
0.0
 11
18.27978096984569
 21
30.67504258287338
 31
0.0
  0
LINE
  5
11D34
330
6C
100
AcDbEntity
  8
0
100
AcDbLine
 10
17.47538220455836
 20
30.87372693304705
 30
0.0
 11
18.2451564873971
 21
30.55463854857344
 31
0.0
  0
ARC
  5
11D35
330
6C
100
AcDbEntity
  8
0
100
AcDbCircle
 10
18.2811499929085
 20
30.64147441421086
 30
0.0
 40
0.094
100
AcDbArc
 50
247.4859711094762
 51
292.4859711094766
  0
LINE
  5
11D36
330
6C
100
AcDbEntity
  8
0
100
AcDbLine
 10
18.28599899541179
 20
24.55414997793473
 30
0.0
 11
18.2797784228292
 21
30.54748442115034
 31
0.0
  0
LINE
  5
11D37
330
6C
100
AcDbEntity
  8
0
100
AcDbLine
 10
15.34306334043916
 20
25.77422539499753
 30
0.0
 11
18.28599899541179
 21
24.55414997793473
 31
0.0
  0
LINE
  5
11D38
330
6C
100
AcDbEntity
  8
0
100
AcDbLine
 10
15.29519202736638
 20
25.65875532476907
 30
0.0
 11
18.25000654999673
 21
24.43375507525392
 31
0.0
  0
ARC
  5
11D39
330
6C
100
AcDbEntity
  8
0
100
AcDbCircle
 10
18.28600005550813
 20
24.52059094089135
 30
0.0
 40
0.094
100
AcDbArc
 50
247.4859711094762
 51
292.4859711094766
  0
LINE
  5
11D3A
330
6C
100
AcDbEntity
  8
0
100
AcDbLine
 10
21.22573066820306
 20
25.77174996148306
 30
0.0
 11
18.28599899541179
 21
24.55414477328802
 31
0.0
  0
LINE
  5
11D3B
330
6C
100
AcDbEntity
  8
0
100
AcDbLine
 10
21.27358578363327
 20
25.6562731772149
 30
0.0
 11
18.32199144082685
 21
24.43375507525392
 31
0.0
  0
LWPOLYLINE
  5
11D3C
330
6C
100
AcDbEntity
  8
0
100
AcDbPolyline
 90
        6
 70
     0
 43
0.0
 10
21.53785241722875
 20
32.55609935720265
 10
22.79335112096771
 20
29.52505735909423
 10
22.99725037516623
 20
29.55537393768238
 10
22.66597772932022
 20
29.30993874274451
 10
22.86988780744073
 20
29.34028145259197
 10
24.15677998711187
 20
26.23344889911802
  0
LINE
  5
11D3D
330
6C
100
AcDbEntity
  8
0
100
AcDbLine
 10
18.27905725942581
 20
30.79253513074232
 30
0.0
 11
21.68480680546893
 21
32.20132008006299
 31
0.0
  0
LINE
  5
11D3E
330
6C
100
AcDbEntity
  8
0
100
AcDbLine
 10
18.27908558311244
 20
30.99166766427627
 30
0.0
 11
21.61439306193573
 21
32.3713138946783
 31
0.0
  0
LINE
  5
11D3F
330
6C
100
AcDbEntity
  8
0
100
AcDbLine
 10
18.28543458394228
 20
24.29965815099672
 30
0.0
 11
23.98063963585811
 21
26.65868932399602
 31
0.0
  0
LINE
  5
11D40
330
6C
100
AcDbEntity
  8
0
100
AcDbLine
 10
18.28543458394228
 20
23.99550594271456
 30
0.0
 11
24.0881736803527
 21
26.39907917536035
 31
0.0
  0
LWPOLYLINE
  5
11D41
330
6C
100
AcDbEntity
  8
0
100
AcDbPolyline
 90
        6
 70
     0
 43
0.0
 10
15.0092215525808
 20
32.54070631114037
 10
13.76135364402654
 20
29.52808668225852
 10
13.55745438982803
 20
29.55840326084667
 10
13.88872703567403
 20
29.31296806590881
 10
13.68481695755352
 20
29.34331077575626
 10
12.40623005266981
 20
26.25652892931334
  0
LINE
  5
11D42
330
6C
100
AcDbEntity
  8
0
100
AcDbLine
 10
18.27978096984569
 20
30.79223552358718
 30
0.0
 11
14.8697233537115
 21
32.2039278675035
 31
0.0
  0
LINE
  5
11D43
330
6C
100
AcDbEntity
  8
0
100
AcDbLine
 10
18.27908558311244
 20
30.99166766427627
 30
0.0
 11
14.94013710395705
 21
32.37392169832384
 31
0.0
  0
LINE
  5
11D44
330
6C
100
AcDbEntity
  8
0
100
AcDbLine
 10
18.28543458394228
 20
24.29721856275222
 30
0.0
 11
12.57358111751102
 21
26.66055013973057
 31
0.0
  0
LINE
  5
11D45
330
6C
100
AcDbEntity
  8
0
100
AcDbLine
 10
18.28543458394228
 20
23.99311411380664
 30
0.0
 11
12.46604708075278
 21
26.40094000977211
 31
0.0
  0
LINE
  5
11D46
330
6C
100
AcDbEntity
  8
0
100
AcDbLine
 10
15.29518718137382
 20
25.65874363578321
 30
0.0
 11
15.34306334043917
 21
25.77422539499753
 31
0.0
  0
LINE
  5
11D47
330
6C
100
AcDbEntity
  8
0
100
AcDbLine
 10
21.27358578363327
 20
25.6562731772149
 30
0.0
 11
21.22573066820306
 21
25.77174996148306
 31
0.0
  0
LINE
  5
11D48
330
6C
100
AcDbEntity
  8
0
100
AcDbLine
 10
17.47538220455836
 20
30.87372693304705
 30
0.0
 11
17.52326681516465
 21
30.98919148496542
 31
0.0
  0
LINE
  5
11D49
330
6C
100
AcDbEntity
  8
0
100
AcDbLine
 10
19.08652688880397
 20
30.87309078626392
 30
0.0
 11
19.03869984197977
 21
30.98857919365548
 31
0.0
  0
LINE
  5
11D4A
330
6C
100
AcDbEntity
  8
0
100
AcDbLine
 10
18.27977975027586
 20
30.67504308931007
 30
0.0
 11
18.27978304825022
 21
30.99195617382408
 31
0.0
  0
LEADER
  5
11D4B
330
6C
100
AcDbEntity
  8
TEXT
100
AcDbLeader
  3
STANDARD
 76
     3
 10
17.51213246510072
 20
30.88772010186224
 30
0.0
 10
13.14134042342891
 20
31.28336322095104
 30
0.0
 10
12.95384042342891
 20
31.28336322095104
 30
0.0
211
1.0
221
-0.0000000000000013
231
0.0
  0
MTEXT
  5
11D4C
102
{ACAD_XDICTIONARY
360
126D8
102
}
330
6C
100
AcDbEntity
  8
TEXT
100
AcDbMText
 10
10.75495843209279
 20
31.14207492243573
 30
0.0
 40
0.25
 41
2.130981104488723
 46
0.0
 71
     7
 72
     5
  1
\pxqr; BR-??\P0.125 ALUM.   BRAKE
 73
     1
 44
1.0
  0
DIMENSION
  5
11D4D
330
6C
100
AcDbEntity
  8
DIME
100
AcDbDimension
280
     0
  2
*D28
 10
25.12868294439779
 20
23.88706759832773
 30
0.0
 11
22.21599261061771
 21
22.9288368597265
 31
0.0
 70
    32
  1
OD
 71
     5
 42
6.115348023937066
 73
     0
 74
     0
 75
     0
  3
EXT_ON-OFF
100
AcDbAlignedDimension
 13
18.28600005550813
 23
24.42659094089135
 33
0.0
 14
24.15677998711187
 24
26.23344889911802
 34
0.0
 50
22.49999999999919
100
AcDbRotatedDimension
  0
DIMENSION
  5
11D4E
330
6C
100
AcDbEntity
  8
DIME
100
AcDbDimension
280
     0
  2
*D29
 10
24.8895057715259
 20
24.46449237288513
 30
0.0
 11
21.97847956249434
 21
23.50224408174655
 31
0.0
 70
    32
  1
FW
 71
     5
 42
6.115348023937066
 73
     0
 74
     0
 75
     0
  3
EXT_ON-OFF
100
AcDbAlignedDimension
 13
18.28600005550813
 23
24.42659094089135
 33
0.0
 14
24.15677998711187
 24
26.23344889911802
 34
0.0
 50
22.49999999999919
100
AcDbRotatedDimension
  0
DIMENSION
  5
11D4F
330
6C
100
AcDbEntity
  8
DIME
100
AcDbDimension
280
     0
  2
*D30
 10
22.8017299252564
 20
24.27620250553634
 30
0.0
 11
20.81337155807216
 21
23.70075031234826
 31
0.0
 70
    32
 71
     5
 42
4.114439238380636
 73
     0
 74
     0
 75
     0
  3
EXT_ON-ON
100
AcDbAlignedDimension
 13
18.28600005550813
 23
24.42659094089135
 33
0.0
 14
22.13203068644197
 24
25.89299949059315
 34
0.0
 50
22.49999999999919
100
AcDbRotatedDimension
  0
DIMENSION
  5
11D50
330
6C
100
AcDbEntity
  8
DIME
100
AcDbDimension
280
     0
  2
*D31
 10
11.90420267257269
 20
25.04452761960021
 30
0.0
 11
12.91528649636635
 21
24.8739680877323
 31
0.0
 70
    32
  1
DLO
 71
     5
 42
1.99877991506802
 73
     0
 74
     0
 75
     0
  3
EXT_ON-OFF
100
AcDbAlignedDimension
 13
14.42052348889457
 23
25.89639983771304
 33
0.0
 14
12.4062300526698
 24
26.25652892931333
 34
0.0
 50
337.5000000000008
100
AcDbRotatedDimension
  0
DIMENSION
  5
11D51
330
6C
100
AcDbEntity
  8
DIME
100
AcDbDimension
280
     0
  2
*D32
 10
11.4258483268289
 20
23.88967807048539
 30
0.0
 11
14.34645542496623
 21
22.92816810071728
 31
0.0
 70
    32
  1
OD
 71
     5
 42
6.13248611192076
 73
     0
 74
     0
 75
     0
  3
EXT_ON-OFF
100
AcDbAlignedDimension
 13
18.28600005550813
 23
24.42659094089135
 33
0.0
 14
12.4062300526698
 24
26.25652892931333
 34
0.0
 50
337.5000000000008
100
AcDbRotatedDimension
  0
DIMENSION
  5
11D52
330
6C
100
AcDbEntity
  8
DIME
100
AcDbDimension
280
     0
  2
*D33
 10
11.66502549970079
 20
24.4671028450428
 30
0.0
 11
14.58396847308961
 21
23.50157532273733
 31
0.0
 70
    32
  1
FW
 71
     5
 42
6.13248611192076
 73
     0
 74
     0
 75
     0
  3
EXT_ON-OFF
100
AcDbAlignedDimension
 13
18.28600005550813
 23
24.42659094089135
 33
0.0
 14
12.4062300526698
 24
26.25652892931333
 34
0.0
 50
337.5000000000008
100
AcDbRotatedDimension
  0
DIMENSION
  5
11D53
330
6C
100
AcDbEntity
  8
DIME
100
AcDbDimension
280
     0
  2
*D34
 10
13.75080327640796
 20
24.27964060520527
 30
0.0
 11
15.74807744273062
 21
23.70049536709467
 31
0.0
 70
    32
 71
     5
 42
4.133740021274231
 73
     0
 74
     0
 75
     0
  3
EXT_ON-ON
100
AcDbAlignedDimension
 13
18.28600005550813
 23
24.42659094089135
 33
0.0
 14
14.4205025152224
 24
25.89643759026208
 34
0.0
 50
337.5000000000008
100
AcDbRotatedDimension
  0
DIMENSION
  5
11D54
330
6C
100
AcDbEntity
  8
DIME
100
AcDbDimension
280
     0
  2
*D35
 10
24.650328598654
 20
25.04191714744254
 30
0.0
 11
23.63824574007917
 21
24.87094380181899
 31
0.0
 70
    32
  1
DLO
 71
     5
 42
2.000942609977926
 73
     0
 74
     0
 75
     0
  3
EXT_ON-OFF
100
AcDbAlignedDimension
 13
22.13200971276979
 23
25.89296173804411
 33
0.0
 14
24.15677998711187
 24
26.23344889911802
 34
0.0
 50
22.49999999999919
100
AcDbRotatedDimension
  0
LEADER
  5
11D55
330
6C
100
AcDbEntity
  8
TEXT
100
AcDbLeader
  3
STANDARD
 76
     3
 10
19.656246540119
 20
25.08381839043893
 30
0.0
 10
12.42812113522794
 20
29.25725520132157
 30
0.0
 10
12.24062113522794
 20
29.25725520132157
 30
0.0
211
1.0
221
-0.0000000000000013
231
0.0
  0
MTEXT
  5
11D56
102
{ACAD_XDICTIONARY
360
126DA
102
}
330
6C
100
AcDbEntity
  8
TEXT
100
AcDbMText
 10
10.04173914389182
 20
29.11596690280626
 30
0.0
 40
0.25
 41
2.130981104488723
 46
0.0
 71
     7
 72
     5
  1
\pxqr; BR-??\P0.125 ALUM.   BRAKE
 73
     1
 44
1.0
  0
LINE
  5
11D57
330
6C
100
AcDbEntity
  8
0
100
AcDbLine
 10
18.28543458394228
 20
24.42659264174765
 30
0.0
 11
18.28543458394228
 21
23.99311411380665
 31
0.0
  0
INSERT
  5
11D58
330
6C
100
AcDbEntity
  8
0
100
AcDbBlockReference
  2
B601TCG010
 10
16.01389963370927
 20
27.130858364889
 30
0.0
 50
337.4999999999999
  0
INSERT
  5
11D59
330
6C
100
AcDbEntity
  8
0
100
AcDbBlockReference
  2
B601TCG010
 10
20.54125494663547
 20
27.12876940886085
 30
0.0
 41
-1.0
 50
22.5
  0
MTEXT
  5
11DFA
330
6C
100
AcDbEntity
  8
TEXT
100
AcDbMText
 10
14.3126732034607
 20
33.53528685060338
 30
0.0
 40
0.25
 41
9.478949894201232
 46
0.0
 71
     1
 72
     5
  1
601TCG010  FEMALE EXPANSION MULLION HALF
 73
     1
 44
1.0
  0
MTEXT
  5
11DFB
330
6C
100
AcDbEntity
  8
TEXT
100
AcDbMText
 10
18.26697519862964
 20
21.19096799750441
 30
0.0
 40
0.375
 41
6.5
 46
0.0
 71
     2
 72
     5
  1
\P135%%D OUTSIDE CORNER\PWITH BRAKE METAL
 73
     1
 44
1.0
  0
INSERT
  5
11DFC
330
6C
100
AcDbEntity
  8
0
100
AcDbBlockReference
  2
gt100
 10
15.21914568921308
 20
27.1451125689297
 30
0.0
 50
157.5110505389455
  0
INSERT
  5
11E16
330
6C
100
AcDbEntity
  8
0
100
AcDbBlockReference
  2
gt100
 10
20.73026499704908
 20
28.60440656657306
 30
0.0
 50
22.47265049006476
  0
LINE
  5
11E9D
330
6C
100
AcDbEntity
  8
0
100
AcDbLine
 10
45.52467272241857
 20
25.06872665801353
 30
0.0
 11
44.76575385028449
 21
25.38229120559975
 31
0.0
  0
LINE
  5
11E9E
330
6C
100
AcDbEntity
  8
0
100
AcDbLine
 10
45.57249976924278
 20
25.1842150654051
 30
0.0
 11
44.80307385096394
 21
25.50268491872636
 31
0.0
  0
LINE
  5
11E9F
330
6C
100
AcDbEntity
  8
0
100
AcDbLine
 10
44.00923969560345
 20
25.0681143667036
 30
0.0
 11
44.76575385028449
 21
25.38226326879563
 31
0.0
  0
LINE
  5
11EA0
330
6C
100
AcDbEntity
  8
0
100
AcDbLine
 10
43.96135508499717
 20
25.18357891862196
 30
0.0
 11
44.73112936783589
 21
25.50266730309557
 31
0.0
  0
ARC
  5
11EA1
330
6C
100
AcDbEntity
  8
0
100
AcDbCircle
 10
44.7671228733473
 20
25.41583143745815
 30
0.0
 40
0.094
100
AcDbArc
 50
67.51402889052319
 51
112.5140288905234
  0
LINE
  5
11EA2
330
6C
100
AcDbEntity
  8
0
100
AcDbLine
 10
44.77197187585059
 20
31.50315587373428
 30
0.0
 11
44.765751303268
 21
25.50982143051867
 31
0.0
  0
LINE
  5
11EA3
330
6C
100
AcDbEntity
  8
0
100
AcDbLine
 10
41.82903622087797
 20
30.28308045667149
 30
0.0
 11
44.77197187585059
 21
31.50315587373428
 31
0.0
  0
LINE
  5
11EA4
330
6C
100
AcDbEntity
  8
0
100
AcDbLine
 10
41.78116490780519
 20
30.39855052689995
 30
0.0
 11
44.73597943043554
 21
31.62355077641509
 31
0.0
  0
ARC
  5
11EA5
330
6C
100
AcDbEntity
  8
0
100
AcDbCircle
 10
44.77197293594694
 20
31.53671491077767
 30
0.0
 40
0.094
100
AcDbArc
 50
67.51402889052319
 51
112.5140288905234
  0
LINE
  5
11EA6
330
6C
100
AcDbEntity
  8
0
100
AcDbLine
 10
47.71170354864187
 20
30.28555589018596
 30
0.0
 11
44.77197187585059
 21
31.503161078381
 31
0.0
  0
LINE
  5
11EA7
330
6C
100
AcDbEntity
  8
0
100
AcDbLine
 10
47.75955866407207
 20
30.40103267445411
 30
0.0
 11
44.80796432126566
 21
31.62355077641509
 31
0.0
  0
LWPOLYLINE
  5
11EA8
330
6C
100
AcDbEntity
  8
0
100
AcDbPolyline
 90
        6
 70
     0
 43
0.0
 10
48.02609699115937
 20
23.50915400627881
 10
49.27845314334077
 20
26.53260921379652
 10
49.48235239753928
 20
26.50229263520837
 10
49.15107975169327
 20
26.74772783014624
 10
49.35498982981378
 20
26.71738512029878
 10
50.63624043594676
 20
29.81059771042374
  0
LINE
  5
11EA9
330
6C
100
AcDbEntity
  8
0
100
AcDbLine
 10
44.7650301398646
 20
25.2647707209267
 30
0.0
 11
48.16990882784198
 21
23.85634649282775
 31
0.0
  0
LINE
  5
11EAA
330
6C
100
AcDbEntity
  8
0
100
AcDbLine
 10
44.7715400794279
 20
31.75759276972133
 30
0.0
 11
50.46574165823116
 21
29.39897724889472
 31
0.0
  0
LWPOLYLINE
  5
11EAB
330
6C
100
AcDbEntity
  8
0
100
AcDbPolyline
 90
        6
 70
     0
 43
0.0
 10
41.49603404748186
 20
23.51123977885601
 10
40.24614821832428
 20
26.52873109902623
 10
40.04224896412576
 20
26.49841452043808
 10
40.37352160997177
 20
26.74384971537595
 10
40.16961153185126
 20
26.71350700552849
 10
38.87883478865736
 20
29.82971772494301
  0
LINE
  5
11EAC
330
6C
100
AcDbEntity
  8
0
100
AcDbLine
 10
44.76575385028449
 20
25.26507032808184
 30
0.0
 11
41.35480068910748
 21
23.85220726810295
 31
0.0
  0
LINE
  5
11EAD
330
6C
100
AcDbEntity
  8
0
100
AcDbLine
 10
44.7715400794279
 20
31.76014216094216
 30
0.0
 11
39.05929339409217
 21
29.39405211225536
 31
0.0
  0
DIMENSION
  5
11EAE
330
6C
100
AcDbEntity
  8
DIME
100
AcDbDimension
280
     0
  2
*D36
 10
42.24112926010522
 20
21.71233833117724
 30
0.0
 11
43.8795713136388
 21
22.63921556775398
 31
0.0
 70
    32
  1
O.D.
 71
     5
 42
3.736839846203267
 73
     0
 74
     0
 75
     0
  3
EXT_ON-OFF
100
AcDbAlignedDimension
 13
44.76575385028451
 23
25.38229120559976
 33
0.0
 14
41.49603404748186
 24
23.511239778856
 34
0.0
 50
22.49907119961934
100
AcDbRotatedDimension
  0
DIMENSION
  5
11EAF
330
6C
100
AcDbEntity
  8
DIME
100
AcDbDimension
280
     0
  2
*D37
 10
42.00196082135528
 20
22.28976849502371
 30
0.0
 11
43.64206693451013
 21
23.21262815208713
 31
0.0
 70
    32
  1
F.W.
 71
     5
 42
3.736839846203267
 73
     0
 74
     0
 75
     0
  3
EXT_ON-OFF
100
AcDbAlignedDimension
 13
44.76575385028451
 23
25.38229120559976
 33
0.0
 14
41.49603404748186
 24
23.511239778856
 34
0.0
 50
22.49907119961934
100
AcDbRotatedDimension
  0
DIMENSION
  5
11EB0
330
6C
100
AcDbEntity
  8
DIME
100
AcDbDimension
280
     0
  2
*D38
 10
45.21521230441994
 20
24.29720250990271
 30
0.0
 11
44.32515098728693
 21
24.17677214164601
 31
0.0
 70
    32
 71
     5
 42
1.736792280529378
 73
     0
 74
     0
 75
     0
  3
EXT_ON-ON
100
AcDbAlignedDimension
 13
43.20259696352393
 23
24.61762881888826
 33
0.0
 14
44.76575385028449
 24
25.38229120559975
 34
0.0
 50
22.5000000000001
100
AcDbRotatedDimension
  0
DIMENSION
  5
11EB1
330
6C
100
AcDbEntity
  8
DIME
100
AcDbDimension
280
     0
  2
*D39
 10
41.76278971945559
 20
22.86720508857725
 30
0.0
 11
42.59961497082792
 21
23.46205699801921
 31
0.0
 70
    32
  1
DLO
 71
     5
 42
2.001523949467205
 73
     0
 74
     0
 75
     0
  3
EXT_ON-OFF
100
AcDbAlignedDimension
 13
43.33442065658577
 23
24.30321721969585
 33
0.0
 14
41.49603404748186
 24
23.511239778856
 34
0.0
 50
22.49907119961934
100
AcDbRotatedDimension
  0
LINE
  5
11EB2
330
6C
100
AcDbEntity
  8
0
100
AcDbLine
 10
41.78116006181262
 20
30.39856221588581
 30
0.0
 11
41.82903622087797
 21
30.28308045667149
 31
0.0
  0
LINE
  5
11EB3
330
6C
100
AcDbEntity
  8
0
100
AcDbLine
 10
47.75955866407207
 20
30.40103267445411
 30
0.0
 11
47.71170354864187
 21
30.28555589018596
 31
0.0
  0
LINE
  5
11EB4
330
6C
100
AcDbEntity
  8
0
100
AcDbLine
 10
43.96135508499717
 20
25.18357891862196
 30
0.0
 11
44.00923969560345
 21
25.0681143667036
 31
0.0
  0
LINE
  5
11EB5
330
6C
100
AcDbEntity
  8
0
100
AcDbLine
 10
45.57249976924278
 20
25.1842150654051
 30
0.0
 11
45.52467272241857
 21
25.06872665801353
 31
0.0
  0
LINE
  5
11EB6
330
6C
100
AcDbEntity
  8
0
100
AcDbLine
 10
44.76575263071466
 20
25.38226276235895
 30
0.0
 11
44.76575385028451
 21
25.26507032808185
 31
0.0
  0
LEADER
  5
11EB7
330
6C
100
AcDbEntity
  8
TEXT
100
AcDbLeader
  3
STANDARD
 76
     3
 10
43.75349058617217
 20
31.21623279751972
 30
0.0
 10
42.93695838160912
 20
32.43328448971184
 30
0.0
 10
42.74945838160912
 20
32.43328448971184
 30
0.0
  0
MTEXT
  5
11EB8
102
{ACAD_XDICTIONARY
360
126DC
102
}
330
6C
100
AcDbEntity
  8
TEXT
100
AcDbMText
 10
40.52070974062932
 20
32.54640176891816
 30
0.0
 40
0.25
 41
2.049798720462161
 46
0.0
 71
     1
 72
     5
  1
\pxqr; BR-??\P0.125 ALUM.   BRAKE
 73
     1
 44
1.0
  0
LEADER
  5
11EB9
330
6C
100
AcDbEntity
  8
TEXT
100
AcDbLeader
  3
STANDARD
 76
     3
 10
43.9852973903003
 20
25.12584664266278
 30
0.0
 10
39.62731330386772
 20
24.77394263071797
 30
0.0
 10
39.43981330386772
 20
24.77394263071797
 30
0.0
  0
MTEXT
  5
11EBA
102
{ACAD_XDICTIONARY
360
126DE
102
}
330
6C
100
AcDbEntity
  8
TEXT
100
AcDbMText
 10
37.24093131253159
 20
24.91523092923329
 30
0.0
 40
0.25
 41
2.130981104488723
 46
0.0
 71
     1
 72
     5
  1
\pxqr; BR-??\P0.125 ALUM.   BRAKE
 73
     1
 44
1.0
  0
INSERT
  5
11EBB
330
6C
100
AcDbEntity
  8
0
100
AcDbBlockReference
  2
B601TCG010
 10
43.45513027563722
 20
26.61641248026733
 30
0.0
 50
22.50000000000001
  0
INSERT
  5
11EBC
330
6C
100
AcDbEntity
  8
0
100
AcDbBlockReference
  2
B601TCG010
 10
46.06934868690475
 20
26.61985057993625
 30
0.0
 41
-1.0
 50
337.5
  0
LINE
  5
11EBD
330
6C
100
AcDbEntity
  8
0
100
AcDbLine
 10
44.7715400794279
 20
32.06174497800349
 30
0.0
 11
50.57327570272575
 21
29.65858739753039
 31
0.0
  0
LINE
  5
11EBE
330
6C
100
AcDbEntity
  8
0
100
AcDbLine
 10
44.7715400794279
 20
32.06424660988773
 30
0.0
 11
38.95177623507296
 21
29.65362149574735
 31
0.0
  0
LINE
  5
11EBF
330
6C
100
AcDbEntity
  8
0
100
AcDbLine
 10
44.7661091009684
 20
25.06609678097261
 30
0.0
 11
41.42520048658447
 21
23.68224712224569
 31
0.0
  0
LINE
  5
11EC0
330
6C
100
AcDbEntity
  8
0
100
AcDbLine
 10
44.7661091009684
 20
25.06632918272175
 30
0.0
 11
48.09922738131299
 21
23.68570638600933
 31
0.0
  0
LINE
  5
11EC1
330
6C
100
AcDbEntity
  8
0
100
AcDbLine
 10
44.7715400794279
 20
31.63071391415129
 30
0.0
 11
44.7715400794279
 21
32.06424660988773
 31
0.0
  0
LINE
  5
11EC2
330
6C
100
AcDbEntity
  8
0
100
AcDbLine
 10
44.7661091009684
 20
25.38214442572107
 30
0.0
 11
44.7661091009684
 21
25.06609678097261
 31
0.0
  0
MTEXT
  5
11F15
330
6C
100
AcDbEntity
  8
TEXT
100
AcDbMText
 10
40.69356831402006
 20
33.53528685060338
 30
0.0
 40
0.25
 41
9.478949894201232
 46
0.0
 71
     1
 72
     5
  1
601TCG010  FEMALE EXPANSION MULLION HALF
 73
     1
 44
1.0
  0
MTEXT
  5
11F17
330
6C
100
AcDbEntity
  8
TEXT
100
AcDbMText
 10
45.55802376792769
 20
21.19096799750441
 30
0.0
 40
0.375
 41
6.5
 46
0.0
 71
     2
 72
     5
  1
\P135%%D INSIDE CORNER\PWITH BRAKE METAL
 73
     1
 44
1.0
  0
INSERT
  5
12056
330
6C
100
AcDbEntity
  8
0
100
AcDbBlockReference
  2
gt100
 10
42.88239026025485
 20
26.06423189184945
 30
0.0
 50
202.4782663463362
  0
INSERT
  5
120B1
330
6C
100
AcDbEntity
  8
0
100
AcDbBlockReference
  2
gt100
 10
47.24680249865685
 20
27.52951558574316
 30
0.0
 50
337.5
  0
MTEXT
  5
121DA
330
6C
100
AcDbEntity
  8
TEXT
100
AcDbMText
 10
29.93927485563182
 20
2.012114476719047
 30
0.0
 40
0.375
 41
5.519524215552523
 46
0.0
 71
     2
 72
     5
  1
DETAIL SCALE: 1" = 1"
 73
     1
 44
1.0
  0
MTEXT
  5
121DC
330
6C
100
AcDbEntity
  8
TEXT
100
AcDbMText
 10
29.93927485563183
 20
3.071036861894127
 30
0.0
 40
0.5
 41
22.31716845338133
 46
0.0
 71
     8
 72
     5
  1
TRIFAB™ 601T FRAMING SYSTEM \PSCREW SPLINE ASSEMBLY (1" INFILL)\PTYPICAL CORNER DETAILS
 73
     1
 44
1.0
  0
MTEXT
  5
121DD
330
6C
100
AcDbEntity
  8
TEXT
100
AcDbMText
 10
1.375
 20
2.374999942131637
 30
0.0
 40
0.375
 41
14.22387531454843
 46
0.0
 71
     1
 72
     5
  1
ENGINEERING CHANGE:  97910-219 (DECEMBER 2023)\PFILE NAME:  KCDC071 SHEET 05 OF 06.DWG
 73
     1
 44
1.0
101
Embedded Object
 70
     1
 10
1.0
 20
0.0
 30
0.0
 11
1.375
 21
2.374999942131637
 31
0.0
 40
14.22387531454843
 41
0.0
 42
13.71052182810368
 43
1.01944065484311
 71
     2
 72
     1
 44
14.22387531454843
 45
1.25
 73
     0
 74
     0
 46
0.0
  0
INSERT
  5
12741
330
6C
100
AcDbEntity
  8
0
100
AcDbBlockReference
  2
Kawneer Logo English
 10
1.374999999999985
 20
2.875000015474157
 30
0.0
 41
5.337
 42
5.337
 43
5.337
  0
ENDSEC
  0
SECTION
  2
OBJECTS
  0
DICTIONARY
  5
C
330
0
100
AcDbDictionary
281
     1
  3
ACAD_CIP_PREVIOUS_PRODUCT_INFO
350
77
  3
ACAD_COLOR
350
63
  3
ACAD_DETAILVIEWSTYLE
350
12732
  3
ACAD_GROUP
350
D
  3
ACAD_LAYOUT
350
62
  3
ACAD_MATERIAL
350
10
  3
ACAD_MLEADERSTYLE
350
66
  3
ACAD_MLINESTYLE
350
5F
  3
ACAD_PLOTSETTINGS
350
61
  3
ACAD_PLOTSTYLENAME
350
E
  3
ACAD_SCALELIST
350
42
  3
ACAD_SECTIONVIEWSTYLE
350
12730
  3
ACAD_TABLESTYLE
350
64
  3
ACAD_VISUALSTYLE
350
29
  3
ACDB_RECOMPOSE_DATA
350
12935
  3
AcDbVariableDictionary
350
2379
  0
DICTIONARY
  5
2324
330
8
100
AcDbDictionary
280
     1
281
     1
  0
DICTIONARY
  5
677
330
2
100
AcDbDictionary
280
     1
281
     1
  3
ACAD_LAYERSTATES
360
678
  0
DICTIONARY
  5
B0B
330
B0A
100
AcDbDictionary
280
     1
281
     1
  0
DICTIONARY
  5
FF17
330
FF16
100
AcDbDictionary
280
     1
281
     1
  0
DICTIONARY
  5
1344
330
6C
100
AcDbDictionary
280
     1
281
     1
  3
ACAD_SORTENTS
360
1345
  0
DICTIONARY
  5
107B8
330
1079A
100
AcDbDictionary
280
     1
281
     1
  3
ACAD_SORTENTS
360
10B55
  0
DICTIONARY
  5
11087
330
11086
100
AcDbDictionary
280
     1
281
     1
  3
ACAD_SORTENTS
360
11088
  0
DICTIONARY
  5
128D6
330
124E1
100
AcDbDictionary
280
     1
281
     1
  3
ACAD_SORTENTS
360
128D7
  0
DICTIONARY
  5
126CC
330
117B8
100
AcDbDictionary
280
     1
281
     1
  0
DICTIONARY
  5
126CE
330
117B9
100
AcDbDictionary
280
     1
281
     1
  0
DICTIONARY
  5
126D0
330
119DB
100
AcDbDictionary
280
     1
281
     1
  0
DICTIONARY
  5
126D2
330
119DC
100
AcDbDictionary
280
     1
281
     1
  0
DICTIONARY
  5
126D4
330
11B6E
100
AcDbDictionary
280
     1
281
     1
  0
DICTIONARY
  5
126D6
330
11BEC
100
AcDbDictionary
280
     1
281
     1
  0
DICTIONARY
  5
126D8
330
11D4C
100
AcDbDictionary
280
     1
281
     1
  0
DICTIONARY
  5
126DA
330
11D56
100
AcDbDictionary
280
     1
281
     1
  0
DICTIONARY
  5
126DC
330
11EB8
100
AcDbDictionary
280
     1
281
     1
  0
DICTIONARY
  5
126DE
330
11EBA
100
AcDbDictionary
280
     1
281
     1
  0
XRECORD
  5
77
102
{ACAD_REACTORS
330
C
102
}
330
C
100
AcDbXrecord
280
     1
300
ACD
300
2022
300

  0
DICTIONARY
  5
63
102
{ACAD_REACTORS
330
C
102
}
330
C
100
AcDbDictionary
281
     1
  0
DICTIONARY
  5
12732
102
{ACAD_REACTORS
330
C
102
}
330
C
100
AcDbDictionary
281
     1
  3
Imperial24
350
12733
  0
DICTIONARY
  5
D
102
{ACAD_REACTORS
330
C
102
}
330
C
100
AcDbDictionary
281
     1
  0
DICTIONARY
  5
62
102
{ACAD_REACTORS
330
C
102
}
330
C
100
AcDbDictionary
281
     1
  3
Layout1
350
6B
  3
Layout2
350
73
  3
Model
350
6F
  0
DICTIONARY
  5
10
102
{ACAD_REACTORS
330
C
102
}
330
C
100
AcDbDictionary
281
     1
  3
ByBlock
350
19
  3
ByLayer
350
11
  3
Global
350
21
  0
DICTIONARY
  5
66
102
{ACAD_REACTORS
330
C
102
}
330
C
100
AcDbDictionary
281
     1
  3
Standard
350
67
  0
DICTIONARY
  5
5F
102
{ACAD_REACTORS
330
C
102
}
330
C
100
AcDbDictionary
281
     1
  3
Standard
350
60
  0
DICTIONARY
  5
61
102
{ACAD_REACTORS
330
C
102
}
330
C
100
AcDbDictionary
281
     1
  0
ACDBDICTIONARYWDFLT
  5
E
102
{ACAD_REACTORS
330
C
102
}
330
C
100
AcDbDictionary
281
     1
  3
Normal
350
F
100
AcDbDictionaryWithDefault
340
F
  0
DICTIONARY
  5
42
102
{ACAD_REACTORS
330
C
102
}
330
C
100
AcDbDictionary
281
     1
  3
A0
350
43
  3
A1
350
12743
  3
A2
350
12744
  3
A3
350
12745
  3
A4
350
12746
  3
A5
350
12747
  3
A6
350
12748
  3
A7
350
12749
  3
A8
350
1274A
  3
A9
350
1274B
  3
B0
350
1274C
  3
B1
350
1274D
  3
B2
350
1274E
  3
B3
350
1274F
  3
B4
350
12750
  3
B5
350
12751
  3
B6
350
12752
  0
DICTIONARY
  5
12730
102
{ACAD_REACTORS
330
C
102
}
330
C
100
AcDbDictionary
281
     1
  3
Imperial24
350
12731
  0
DICTIONARY
  5
64
102
{ACAD_REACTORS
330
C
102
}
330
C
100
AcDbDictionary
281
     1
  3
Standard
350
65
  0
DICTIONARY
  5
29
102
{ACAD_REACTORS
330
C
102
}
330
C
100
AcDbDictionary
281
     1
  3
2dWireframe
350
2F
  3
3D Hidden
350
AB2B
  3
3dWireframe
350
AB2C
  3
Basic
350
2E
  3
Brighten
350
35
  3
ColorChange
350
39
  3
Conceptual
350
32
  3
Dim
350
34
  3
EdgeColorOff
350
41
  3
Facepattern
350
38
  3
Flat
350
2A
  3
FlatWithEdges
350
2B
  3
Gouraud
350
2C
  3
GouraudWithEdges
350
2D
  3
Hidden
350
31
  3
JitterOff
350
3F
  3
Linepattern
350
37
  3
OverhangOff
350
40
  3
Realistic
350
33
  3
Shaded
350
3E
  3
Shaded with edges
350
3D
  3
Shades of Gray
350
3A
  3
Sketchy
350
3B
  3
Thicken
350
36
  3
Wireframe
350
30
  3
X-Ray
350
3C
  0
XRECORD
  5
12935
102
{ACAD_REACTORS
330
C
102
}
330
C
100
AcDbXrecord
280
     1
 90
        1
330
65
  0
DICTIONARY
  5
2379
102
{ACAD_REACTORS
330
C
102
}
330
C
100
AcDbDictionary
281
     1
  3
CANNOSCALE
350
237D
  3
CMLEADERSTYLE
350
237B
  3
CTABLESTYLE
350
237A
  3
CVIEWDETAILSTYLE
350
12753
  3
CVIEWSECTIONSTYLE
350
12754
  3
DIMASSOC
350
2384
  3
HIDETEXT
350
2383
  3
INDEXCTL
350
2382
  3
LAYEREVAL
350
237F
  3
LAYERNOTIFY
350
2380
  3
LIGHTINGUNITS
350
237E
  3
MSLTSCALE
350
237C
  3
SORTENTS
350
2381
  0
DICTIONARY
  5
678
102
{ACAD_REACTORS
330
677
102
}
330
677
100
AcDbDictionary
281
     1
  0
SORTENTSTABLE
  5
1345
102
{ACAD_REACTORS
330
1344
102
}
330
1344
100
AcDbSortentsTable
330
6C
331
5E22
  5
6072
331
5E23
  5
608A
331
5E25
  5
60E2
331
5E29
  5
617D
331
5E2A
  5
6180
331
5E2B
  5
618F
331
5E34
  5
631D
331
5E35
  5
631E
331
618F
  5
29BB
331
6219
  5
29BA
331
6365
  5
6E88
331
643C
  5
6FA6
331
64A2
  5
6FCD
331
64EF
  5
70E2
331
65BF
  5
71AB
331
67E8
  5
FCC
331
6E7F
  5
29BF
331
6E80
  5
29BD
331
6E82
  5
29B6
331
6E83
  5
29B9
331
6FCD
  5
6BD5
331
7076
  5
29A6
331
749C
  5
29A8
331
74B9
  5
29A9
331
9780
  5
29B8
331
AE05
  5
AE0A
331
AE06
  5
AE0B
331
AE07
  5
AE0C
331
B8EE
  5
29BE
331
B8EF
  5
29BC
331
B8F0
  5
29C0
331
DA8F
  5
6178
331
117A4
  5
119C7
331
117A5
  5
119C8
331
117A6
  5
119C9
331
117A7
  5
119CA
331
117A8
  5
119CB
331
117A9
  5
119CC
331
117AA
  5
119CD
331
117AB
  5
119CE
331
117AC
  5
119CF
331
117AD
  5
119D0
331
117AE
  5
119D1
331
117AF
  5
119D2
331
117B0
  5
119D3
331
117B1
  5
119D4
331
117B2
  5
119D5
331
117B3
  5
119D6
331
117B4
  5
119D7
331
117B5
  5
119D8
331
117B6
  5
119D9
331
117B7
  5
119DA
331
117B8
  5
119DB
331
117B9
  5
119DC
331
117BA
  5
119DD
331
117BB
  5
119DE
331
117BC
  5
119DF
331
117BD
  5
119E5
331
117BE
  5
119E6
331
117BF
  5
119E7
331
117C0
  5
119E8
331
117C1
  5
119E9
331
117C2
  5
11B31
331
117C3
  5
11B67
331
117C4
  5
11B68
331
117C5
  5
11B69
331
117C6
  5
11B6A
331
11891
  5
11EAC
331
118D6
  5
11EAD
331
1191B
  5
11EAE
331
1191C
  5
11EAF
331
119C3
  5
11B6B
331
119C4
  5
11B70
331
119C5
  5
11B71
331
119C6
  5
11B72
331
119C7
  5
11B73
331
119C8
  5
11B74
331
119C9
  5
11B75
331
119CA
  5
11B76
331
119CB
  5
11B9F
331
119CC
  5
11BE4
331
119CD
  5
11BE5
331
119CE
  5
11BE6
331
119CF
  5
11BE7
331
119D0
  5
11BE8
331
119D1
  5
11BE9
331
119D2
  5
11BEA
331
119D3
  5
11BEC
331
119D4
  5
11BEE
331
119D5
  5
11BEF
331
119D6
  5
11BF0
331
119D7
  5
11BF1
331
119D8
  5
11C1A
331
119D9
  5
11C1B
331
119DA
  5
11C3F
331
119DB
  5
11C5B
331
119DC
  5
11D31
331
119DD
  5
11D32
331
119DE
  5
11D33
331
119DF
  5
11D34
331
119E0
  5
11D35
331
119E1
  5
11D36
331
119E2
  5
11D37
331
119E3
  5
11D38
331
119E4
  5
11D39
331
119E5
  5
11D3A
331
11AB0
  5
11EB0
331
11B31
  5
11EB1
331
11B66
  5
11D3B
331
11B67
  5
11D3C
331
11B68
  5
11D3D
331
11B69
  5
11D3E
331
11B6A
  5
11D3F
331
11B6C
  5
11D40
331
11B6E
  5
11D41
331
11B6F
  5
11D42
331
11B70
  5
11D43
331
11B71
  5
11D44
331
11B72
  5
11D45
331
11B9F
  5
11EB2
331
11BE4
  5
11EB3
331
11BE5
  5
11EB4
331
11BE6
  5
11EB5
331
11BE7
  5
11EB6
331
11BE8
  5
11EB7
331
11BE9
  5
11EB8
331
11BEA
  5
11EB9
331
11BEC
  5
11EBA
331
11BEE
  5
11EBB
331
11BEF
  5
11EBC
331
11BF0
  5
11EBD
331
11BF1
  5
11EBE
331
11C1A
  5
11EBF
331
11C1B
  5
11EC0
331
11C3F
  5
11EC1
331
11C5B
  5
11EC2
331
11D31
  5
11219
331
11D32
  5
11249
331
11D33
  5
112C8
331
11D34
  5
117A4
331
11D35
  5
117A5
331
11D36
  5
117A6
331
11D37
  5
117A7
331
11D38
  5
117A8
331
11D39
  5
117A9
331
11D3A
  5
117AA
331
11D3B
  5
117AB
331
11D3C
  5
117AC
331
11D3D
  5
117AD
331
11D3E
  5
117AE
331
11D3F
  5
117AF
331
11D40
  5
117B0
331
11D41
  5
117B1
331
11D42
  5
117B2
331
11D43
  5
117B3
331
11D44
  5
117B4
331
11D45
  5
117B5
331
11D46
  5
117B6
331
11D47
  5
117B7
331
11D48
  5
117B8
331
11D49
  5
117B9
331
11D4A
  5
117BA
331
11D4B
  5
117BB
331
11D4C
  5
117BC
331
11D4D
  5
117BD
331
11D4E
  5
117BE
331
11D4F
  5
117BF
331
11D50
  5
117C0
331
11D51
  5
117C1
331
11D52
  5
117C2
331
11D53
  5
117C3
331
11D54
  5
117C9
331
11D55
  5
117CA
331
11D56
  5
11891
331
11D57
  5
118D6
331
11D58
  5
1191B
331
11D59
  5
1191C
331
11DFA
  5
11EC3
331
11DFB
  5
11EC4
331
11DFC
  5
11EC5
331
11E16
  5
11EC6
331
11E9D
  5
11D47
331
11E9E
  5
11D48
331
11E9F
  5
11D49
331
11EA0
  5
11D4A
331
11EA1
  5
11D4B
331
11EA2
  5
11D4C
331
11EA3
  5
11D4D
331
11EA4
  5
11D4E
331
11EA5
  5
11D4F
331
11EA6
  5
11D50
331
11EA7
  5
11D51
331
11EA8
  5
11D52
331
11EA9
  5
11D53
331
11EAA
  5
11D54
331
11EAB
  5
11D55
331
11EAC
  5
11D56
331
11EAD
  5
11D57
331
11EAE
  5
11D58
331
11EAF
  5
11D59
331
11EB0
  5
11D5A
331
11EB1
  5
11D5B
331
11EB2
  5
11D5C
331
11EB3
  5
11D5D
331
11EB4
  5
11DFA
331
11EB5
  5
11DFB
331
11EB6
  5
11DFC
331
11EB7
  5
11E16
331
11EB8
  5
11E9D
331
11EB9
  5
11E9E
331
11EBA
  5
11E9F
331
11EBB
  5
11EA0
331
11EBC
  5
11EA1
331
11EBD
  5
11EA2
331
11EBE
  5
11EA3
331
11EBF
  5
11EA4
331
11EC0
  5
11EA5
331
11EC1
  5
11EA6
331
11EC2
  5
11EA7
  0
SORTENTSTABLE
  5
10B55
102
{ACAD_REACTORS
330
107B8
102
}
330
107B8
100
AcDbSortentsTable
330
1079A
  0
SORTENTSTABLE
  5
11088
102
{ACAD_REACTORS
330
11087
102
}
330
11087
100
AcDbSortentsTable
330
11086
  0
SORTENTSTABLE
  5
128D7
102
{ACAD_REACTORS
330
128D6
102
}
330
128D6
100
AcDbSortentsTable
330
124E1
  0
ACDBDETAILVIEWSTYLE
  5
12733
102
{ACAD_REACTORS
330
12732
102
}
330
12732
100
AcDbModelDocViewStyle
 70
     0
  3
Imperial24
290
     0
300
Imperial24
 90
        0
100
AcDbDetailViewStyle
 70
     0
 71
     0
 90
        3
 71
     1
340
55
 62
   256
 40
0.24
340
0
 62
   256
 40
0.24
300

 40
0.36
280
     3
 71
     2
340
5D
 90
       25
 62
   256
 71
     3
340
55
 62
   256
 40
0.24
 90
        1
 40
0.75
 90
        1
300
%<\AcVar ViewType \f "%tc1">% %<\AcVar ViewDetailId>%\PSCALE %<\AcVar ViewScale \f "%sn">%
 71
     4
340
5D
 90
       25
 62
   256
340
5D
 90
       25
 62
   256
280
     0
  0
LAYOUT
  5
6B
102
{ACAD_REACTORS
330
62
102
}
330
62
100
AcDbPlotSettings
  1

  2
\\noakci-hub21\KCI_ENG1_HPcLJ5550_PCL6_64
  4

  6

 40
0.0
 41
0.0
 42
0.0
 43
0.0
 44
0.0
 45
0.0
 46
0.0
 47
0.0
 48
0.0
 49
0.0
140
0.0
141
0.0
142
1.0
143
1.0
 70
   688
 72
     0
 73
     0
 74
     5
  7
monochrome2.ctb
 75
    16
147
1.0
 76
     0
 77
     2
 78
   300
148
0.0
149
0.0
100
AcDbLayout
  1
Layout1
 70
     1
 71
     1
 10
0.0
 20
0.0
 11
12.0
 21
9.0
 12
0.0
 22
0.0
 32
0.0
 14
1.000000000000000E+20
 24
1.000000000000000E+20
 34
1.000000000000000E+20
 15
-1.000000000000000E+20
 25
-1.000000000000000E+20
 35
-1.000000000000000E+20
146
0.0
 13
0.0
 23
0.0
 33
0.0
 16
1.0
 26
0.0
 36
0.0
 17
0.0
 27
1.0
 37
0.0
 76
     0
330
68
  0
LAYOUT
  5
73
102
{ACAD_REACTORS
330
62
102
}
330
62
100
AcDbPlotSettings
  1

  2
\\noakci-hub21\KCI_ENG1_HPcLJ5550_PCL6_64
  4

  6

 40
0.0
 41
0.0
 42
0.0
 43
0.0
 44
0.0
 45
0.0
 46
0.0
 47
0.0
 48
0.0
 49
0.0
140
0.0
141
0.0
142
1.0
143
1.0
 70
   688
 72
     0
 73
     0
 74
     5
  7
monochrome2.ctb
 75
    16
147
1.0
 76
     0
 77
     2
 78
   300
148
0.0
149
0.0
100
AcDbLayout
  1
Layout2
 70
     1
 71
     2
 10
0.0
 20
0.0
 11
12.0
 21
9.0
 12
0.0
 22
0.0
 32
0.0
 14
0.0
 24
0.0
 34
0.0
 15
0.0
 25
0.0
 35
0.0
146
0.0
 13
0.0
 23
0.0
 33
0.0
 16
1.0
 26
0.0
 36
0.0
 17
0.0
 27
1.0
 37
0.0
 76
     0
330
70
  0
LAYOUT
  5
6F
102
{ACAD_XDICTIONARY
360
6327
102
}
102
{ACAD_REACTORS
330
62
102
}
330
62
100
AcDbPlotSettings
  1

  2
\\noakci-hub21\KCI_ENG1_HPcLJ5550_PCL6_64
  4
11x17
  6

 40
6.349999904632568
 41
4.233306884765625
 42
6.3499755859375
 43
4.23333740234375
 44
279.3999938964844
 45
431.7999877929687
 46
0.0
 47
5.542899868136746
 48
0.0
 49
0.0
140
0.0
141
0.0
142
1.0
143
6.286980130955069
 70
  3764
 72
     0
 73
     1
 74
     1
  7
monochrome2.ctb
 75
     0
147
0.159058877103225
 76
     0
 77
     2
 78
   300
148
10819.02920764219
149
4822.65426223747
100
AcDbLayout
  1
Model
 70
     1
 71
     0
 10
0.0
 20
0.0
 11
12.0
 21
9.0
 12
0.0
 22
0.0
 32
0.0
 14
0.0
 24
0.0
 34
0.0
 15
0.0
 25
0.0
 35
0.0
146
0.0
 13
0.0
 23
0.0
 33
0.0
 16
1.0
 26
0.0
 36
0.0
 17
0.0
 27
1.0
 37
0.0
 76
     0
330
6C
331
57
1001
ACAD_PSEXT
1000
\\noakci-hub21\KCI_ENG1_HPcLJ5550_PCL6_64
1000
HP Universal Printing PCL 6 (v5.2)
1000
Engineering
1000
KCI - Norcross, GA
1070
     0
  0
MATERIAL
  5
19
102
{ACAD_XDICTIONARY
360
1A
102
}
102
{ACAD_REACTORS
330
10
102
}
330
10
100
AcDbMaterial
  1
ByBlock
 72
     0
 43
0.0208333333333333
 43
0.0
 43
0.0
 43
0.0
 43
0.0
 43
0.0208333333333333
 43
0.0
 43
0.0
 43
0.0
 43
0.0
 43
1.0
 43
0.0
 43
0.0
 43
0.0
 43
0.0
 43
1.0
 77
     0
 47
0.0208333333333333
 47
0.0
 47
0.0
 47
0.0
 47
0.0
 47
0.0208333333333333
 47
0.0
 47
0.0
 47
0.0
 47
0.0
 47
1.0
 47
0.0
 47
0.0
 47
0.0
 47
0.0
 47
1.0
171
     0
 49
0.0208333333333333
 49
0.0
 49
0.0
 49
0.0
 49
0.0
 49
0.0208333333333333
 49
0.0
 49
0.0
 49
0.0
 49
0.0
 49
1.0
 49
0.0
 49
0.0
 49
0.0
 49
0.0
 49
1.0
175
     0
142
0.0208333333333333
142
0.0
142
0.0
142
0.0
142
0.0
142
0.0208333333333333
142
0.0
142
0.0
142
0.0
142
0.0
142
1.0
142
0.0
142
0.0
142
0.0
142
0.0
142
1.0
179
     0
144
0.0208333333333333
144
0.0
144
0.0
144
0.0
144
0.0
144
0.0208333333333333
144
0.0
144
0.0
144
0.0
144
0.0
144
1.0
144
0.0
144
0.0
144
0.0
144
0.0
144
1.0
147
0.0208333333333333
147
0.0
147
0.0
147
0.0
147
0.0
147
0.0208333333333333
147
0.0
147
0.0
147
0.0
147
0.0
147
1.0
147
0.0
147
0.0
147
0.0
147
0.0
147
1.0
  0
MATERIAL
  5
11
102
{ACAD_XDICTIONARY
360
12
102
}
102
{ACAD_REACTORS
330
10
102
}
330
10
100
AcDbMaterial
  1
ByLayer
 72
     0
 43
0.0208333333333333
 43
0.0
 43
0.0
 43
0.0
 43
0.0
 43
0.0208333333333333
 43
0.0
 43
0.0
 43
0.0
 43
0.0
 43
1.0
 43
0.0
 43
0.0
 43
0.0
 43
0.0
 43
1.0
 77
     0
 47
0.0208333333333333
 47
0.0
 47
0.0
 47
0.0
 47
0.0
 47
0.0208333333333333
 47
0.0
 47
0.0
 47
0.0
 47
0.0
 47
1.0
 47
0.0
 47
0.0
 47
0.0
 47
0.0
 47
1.0
171
     0
 49
0.0208333333333333
 49
0.0
 49
0.0
 49
0.0
 49
0.0
 49
0.0208333333333333
 49
0.0
 49
0.0
 49
0.0
 49
0.0
 49
1.0
 49
0.0
 49
0.0
 49
0.0
 49
0.0
 49
1.0
175
     0
142
0.0208333333333333
142
0.0
142
0.0
142
0.0
142
0.0
142
0.0208333333333333
142
0.0
142
0.0
142
0.0
142
0.0
142
1.0
142
0.0
142
0.0
142
0.0
142
0.0
142
1.0
179
     0
144
0.0208333333333333
144
0.0
144
0.0
144
0.0
144
0.0
144
0.0208333333333333
144
0.0
144
0.0
144
0.0
144
0.0
144
1.0
144
0.0
144
0.0
144
0.0
144
0.0
144
1.0
147
0.0208333333333333
147
0.0
147
0.0
147
0.0
147
0.0
147
0.0208333333333333
147
0.0
147
0.0
147
0.0
147
0.0
147
1.0
147
0.0
147
0.0
147
0.0
147
0.0
147
1.0
  0
MATERIAL
  5
21
102
{ACAD_XDICTIONARY
360
22
102
}
102
{ACAD_REACTORS
330
10
102
}
330
10
100
AcDbMaterial
  1
Global
 72
     0
 43
0.0208333333333333
 43
0.0
 43
0.0
 43
0.0
 43
0.0
 43
0.0208333333333333
 43
0.0
 43
0.0
 43
0.0
 43
0.0
 43
1.0
 43
0.0
 43
0.0
 43
0.0
 43
0.0
 43
1.0
 77
     0
 47
0.0208333333333333
 47
0.0
 47
0.0
 47
0.0
 47
0.0
 47
0.0208333333333333
 47
0.0
 47
0.0
 47
0.0
 47
0.0
 47
1.0
 47
0.0
 47
0.0
 47
0.0
 47
0.0
 47
1.0
171
     0
 49
0.0208333333333333
 49
0.0
 49
0.0
 49
0.0
 49
0.0
 49
0.0208333333333333
 49
0.0
 49
0.0
 49
0.0
 49
0.0
 49
1.0
 49
0.0
 49
0.0
 49
0.0
 49
0.0
 49
1.0
175
     0
142
0.0208333333333333
142
0.0
142
0.0
142
0.0
142
0.0
142
0.0208333333333333
142
0.0
142
0.0
142
0.0
142
0.0
142
1.0
142
0.0
142
0.0
142
0.0
142
0.0
142
1.0
179
     0
144
0.0208333333333333
144
0.0
144
0.0
144
0.0
144
0.0
144
0.0208333333333333
144
0.0
144
0.0
144
0.0
144
0.0
144
1.0
144
0.0
144
0.0
144
0.0
144
0.0
144
1.0
147
0.0208333333333333
147
0.0
147
0.0
147
0.0
147
0.0
147
0.0208333333333333
147
0.0
147
0.0
147
0.0
147
0.0
147
1.0
147
0.0
147
0.0
147
0.0
147
0.0
147
1.0
  0
MLEADERSTYLE
  5
67
102
{ACAD_REACTORS
330
66
102
}
330
66
100
AcDbMLeaderStyle
179
     2
170
     2
171
     1
172
     0
 90
        2
 40
0.0
 41
0.0
173
     1
 91
-1056964608
340
5B
 92
       -2
290
     1
 42
0.09
291
     1
 43
0.36
  3
Standard
 44
0.18
300

342
55
174
     1
178
     6
175
     1
176
     0
 93
-1056964608
 45
0.18
292
     0
297
     0
 46
0.18
 94
-1056964608
 47
1.0
 49
1.0
140
1.0
293
     1
141
0.0
294
     1
177
     0
142
1.0
295
     0
296
     0
143
0.125
271
     0
272
     9
273
     9
298
     1
  0
MLINESTYLE
  5
60
102
{ACAD_REACTORS
330
5F
102
}
330
5F
100
AcDbMlineStyle
  2
STANDARD
 70
     0
  3

 62
   256
 51
90.0
 52
90.0
 71
     2
 49
0.5
 62
   256
  6
BYLAYER
 49
-0.5
 62
   256
  6
BYLAYER
  0
ACDBPLACEHOLDER
  5
F
102
{ACAD_REACTORS
330
E
102
}
330
E
  0
SCALE
  5
43
102
{ACAD_REACTORS
330
42
102
}
330
42
100
AcDbScale
 70
     0
300
1:1
140
1.0
141
1.0
290
     1
  0
SCALE
  5
12743
102
{ACAD_REACTORS
330
42
102
}
330
42
100
AcDbScale
 70
     0
300
1/128" = 1'-0"
140
0.0078125
141
12.0
290
     0
  0
SCALE
  5
12744
102
{ACAD_REACTORS
330
42
102
}
330
42
100
AcDbScale
 70
     0
300
1/64" = 1'-0"
140
0.015625
141
12.0
290
     0
  0
SCALE
  5
12745
102
{ACAD_REACTORS
330
42
102
}
330
42
100
AcDbScale
 70
     0
300
1/32" = 1'-0"
140
0.03125
141
12.0
290
     0
  0
SCALE
  5
12746
102
{ACAD_REACTORS
330
42
102
}
330
42
100
AcDbScale
 70
     0
300
1/16" = 1'-0"
140
0.0625
141
12.0
290
     0
  0
SCALE
  5
12747
102
{ACAD_REACTORS
330
42
102
}
330
42
100
AcDbScale
 70
     0
300
3/32" = 1'-0"
140
0.09375
141
12.0
290
     0
  0
SCALE
  5
12748
102
{ACAD_REACTORS
330
42
102
}
330
42
100
AcDbScale
 70
     0
300
1/8" = 1'-0"
140
0.125
141
12.0
290
     0
  0
SCALE
  5
12749
102
{ACAD_REACTORS
330
42
102
}
330
42
100
AcDbScale
 70
     0
300
3/16" = 1'-0"
140
0.1875
141
12.0
290
     0
  0
SCALE
  5
1274A
102
{ACAD_REACTORS
330
42
102
}
330
42
100
AcDbScale
 70
     0
300
1/4" = 1'-0"
140
0.25
141
12.0
290
     0
  0
SCALE
  5
1274B
102
{ACAD_REACTORS
330
42
102
}
330
42
100
AcDbScale
 70
     0
300
3/8" = 1'-0"
140
0.375
141
12.0
290
     0
  0
SCALE
  5
1274C
102
{ACAD_REACTORS
330
42
102
}
330
42
100
AcDbScale
 70
     0
300
1/2" = 1'-0"
140
0.5
141
12.0
290
     0
  0
SCALE
  5
1274D
102
{ACAD_REACTORS
330
42
102
}
330
42
100
AcDbScale
 70
     0
300
3/4" = 1'-0"
140
0.75
141
12.0
290
     0
  0
SCALE
  5
1274E
102
{ACAD_REACTORS
330
42
102
}
330
42
100
AcDbScale
 70
     0
300
1" = 1'-0"
140
1.0
141
12.0
290
     0
  0
SCALE
  5
1274F
102
{ACAD_REACTORS
330
42
102
}
330
42
100
AcDbScale
 70
     0
300
1-1/2" = 1'-0"
140
1.5
141
12.0
290
     0
  0
SCALE
  5
12750
102
{ACAD_REACTORS
330
42
102
}
330
42
100
AcDbScale
 70
     0
300
3" = 1'-0"
140
3.0
141
12.0
290
     0
  0
SCALE
  5
12751
102
{ACAD_REACTORS
330
42
102
}
330
42
100
AcDbScale
 70
     0
300
6" = 1'-0"
140
6.0
141
12.0
290
     0
  0
SCALE
  5
12752
102
{ACAD_REACTORS
330
42
102
}
330
42
100
AcDbScale
 70
     0
300
1'-0" = 1'-0"
140
12.0
141
12.0
290
     0
  0
ACDBSECTIONVIEWSTYLE
  5
12731
102
{ACAD_REACTORS
330
12730
102
}
330
12730
100
AcDbModelDocViewStyle
 70
     0
  3
Imperial24
290
     0
300
Imperial24
 90
        0
100
AcDbSectionViewStyle
 70
     0
 71
     0
 90
       78
 71
     1
340
55
 62
   256
 40
0.24
340
0
340
0
 62
   256
 40
0.24
300
I, O, Q, S, X, Z
 40
0.48
 90
        3
 40
0.18
 90
        1
 71
     2
340
5D
 90
       25
 62
   256
340
5D
 90
       50
 62
   256
 40
0.24
 40
0.0
 40
0.24
 71
     3
340
55
 62
   256
 40
0.24
 90
        1
 40
0.75
 90
        1
300
%<\AcVar ViewType \f "%tc1">% %<\AcVar ViewSectionStartId>%-%<\AcVar ViewSectionEndId>%\PSCALE %<\AcVar ViewScale \f "%sn">%
 71
     4
 62
   256
 62
   257
300
ANSI31
 40
1.0
 90
        0
290
     0
290
     0
 90
        6
 40
0.0
 40
1.570796326794896
 40
0.2617993877991494
 40
1.308996938995747
 40
-0.2617993877991494
 40
1.832595714594046
  0
TABLESTYLE
  5
65
102
{ACAD_XDICTIONARY
360
231A
102
}
102
{ACAD_REACTORS
330
64
102
}
330
64
100
AcDbTableStyle
280
     0
  3
Standard
 70
     0
 71
     0
 40
0.06
 41
0.06
280
     0
281
     0
  7
Standard
140
0.18
170
     2
 62
     0
 63
     7
283
     0
 90
      512
 91
        0
  1

274
    -2
284
     1
 64
     0
275
    -2
285
     1
 65
     0
276
    -2
286
     1
 66
     0
277
    -2
287
     1
 67
     0
278
    -2
288
     1
 68
     0
279
    -2
289
     1
 69
     0
  7
Standard
140
0.25
170
     5
 62
     0
 63
     7
283
     0
 90
      512
 91
        0
  1

274
    -2
284
     1
 64
     0
275
    -2
285
     1
 65
     0
276
    -2
286
     1
 66
     0
277
    -2
287
     1
 67
     0
278
    -2
288
     1
 68
     0
279
    -2
289
     1
 69
     0
  7
Standard
140
0.18
170
     5
 62
     0
 63
     7
283
     0
 90
      512
 91
        0
  1

274
    -2
284
     1
 64
     0
275
    -2
285
     1
 65
     0
276
    -2
286
     1
 66
     0
277
    -2
287
     1
 67
     0
278
    -2
288
     1
 68
     0
279
    -2
289
     1
 69
     0
  0
VISUALSTYLE
  5
2F
102
{ACAD_REACTORS
330
29
102
}
330
29
100
AcDbVisualStyle
  2
2dWireframe
 70
     4
177
     3
291
     0
 70
    58
 90
        0
176
     1
 90
        2
176
     1
 90
        0
176
     1
 90
        0
176
     1
 40
0.6
176
     1
 40
30.0
176
     1
 62
     7
176
     1
 90
        1
176
     1
 90
        4
176
     1
 62
     7
176
     1
 62
   257
176
     1
 90
        1
176
     1
 90
        1
176
     1
 40
1.0
176
     1
 90
        0
176
     1
 62
   257
176
     1
 40
1.0
176
     1
 90
        1
176
     1
 90
        6
176
     1
 90
        2
176
     1
 62
     7
176
     1
 90
        5
176
     1
 90
        0
176
     1
 90
        0
176
     1
290
     0
176
     1
 90
        1
176
     1
 40
0.0
176
     1
 90
        0
176
     1
290
     1
176
     1
290
     1
176
     1
290
     0
176
     1
290
     0
176
     1
290
     0
176
     1
290
     0
176
     1
290
     0
176
     1
290
     0
176
     1
290
     0
176
     1
 90
       50
176
     1
 40
0.0
176
     1
 40
1.0
176
     1
 90
        0
176
     1
 62
    18
420
        0
176
     1
 90
       50
176
     1
 90
        3
176
     1
 62
     5
420
      255
176
     1
290
     0
176
     1
 90
       50
176
     1
 90
       50
176
     1
 90
       50
176
     1
290
     0
176
     1
 90
       50
176
     1
 62
   256
176
     0
 40
1.0
176
     0
 90
        2
176
     1
  1
strokes_ogs.tif
176
     1
290
     0
176
     1
 40
1.0
176
     1
 40
1.0
176
     1
  0
VISUALSTYLE
  5
AB2B
102
{ACAD_REACTORS
330
29
102
}
330
29
100
AcDbVisualStyle
  2
3D Hidden
 70
     6
177
     3
291
     0
 70
    58
 90
        1
176
     1
 90
        2
176
     1
 90
        2
176
     1
 90
        0
176
     1
 40
0.6
176
     1
 40
30.0
176
     1
 62
     7
176
     1
 90
        2
176
     1
 90
        2
176
     1
 62
     7
176
     1
 62
   257
176
     1
 90
        2
176
     1
 90
        1
176
     1
 40
40.0
176
     1
 90
        0
176
     1
 62
   257
176
     1
 40
1.0
176
     1
 90
        1
176
     1
 90
        6
176
     1
 90
        2
176
     1
 62
     7
176
     1
 90
        3
176
     1
 90
        0
176
     1
 90
        0
176
     1
290
     0
176
     1
 90
        1
176
     1
 40
0.0
176
     1
 90
        0
176
     1
290
     0
176
     1
290
     1
176
     1
290
     1
176
     1
290
     0
176
     1
290
     0
176
     1
290
     0
176
     1
290
     0
176
     1
290
     0
176
     1
290
     0
176
     1
 90
       50
176
     1
 40
0.0
176
     1
 40
1.0
176
     1
 90
        0
176
     1
 62
    18
420
        0
176
     1
 90
       50
176
     1
 90
        3
176
     1
 62
     5
420
      255
176
     1
290
     0
176
     1
 90
       50
176
     1
 90
       50
176
     1
 90
       50
176
     1
290
     0
176
     1
 90
       50
176
     1
 62
   256
176
     0
 40
1.0
176
     0
 90
        2
176
     1
  1
strokes_ogs.tif
176
     1
290
     0
176
     1
 40
1.0
176
     1
 40
1.0
176
     1
  0
VISUALSTYLE
  5
AB2C
102
{ACAD_REACTORS
330
29
102
}
330
29
100
AcDbVisualStyle
  2
3dWireframe
 70
     5
177
     3
291
     0
 70
    58
 90
        0
176
     1
 90
        2
176
     1
 90
        0
176
     1
 90
        0
176
     1
 40
0.6
176
     1
 40
30.0
176
     1
 62
     7
176
     1
 90
        1
176
     1
 90
        4
176
     1
 62
     7
176
     1
 62
   257
176
     1
 90
        1
176
     1
 90
        1
176
     1
 40
1.0
176
     1
 90
        0
176
     1
 62
   257
176
     1
 40
1.0
176
     1
 90
        1
176
     1
 90
        6
176
     1
 90
        2
176
     1
 62
     7
176
     1
 90
        5
176
     1
 90
        0
176
     1
 90
        0
176
     1
290
     0
176
     1
 90
        1
176
     1
 40
0.0
176
     1
 90
        0
176
     1
290
     0
176
     1
290
     1
176
     1
290
     1
176
     1
290
     0
176
     1
290
     0
176
     1
290
     0
176
     1
290
     0
176
     1
290
     0
176
     1
290
     0
176
     1
 90
       50
176
     1
 40
0.0
176
     1
 40
1.0
176
     1
 90
        0
176
     1
 62
    18
420
        0
176
     1
 90
       50
176
     1
 90
        3
176
     1
 62
     5
420
      255
176
     1
290
     0
176
     1
 90
       50
176
     1
 90
       50
176
     1
 90
       50
176
     1
290
     0
176
     1
 90
       50
176
     1
 62
   256
176
     0
 40
1.0
176
     0
 90
        2
176
     1
  1
strokes_ogs.tif
176
     1
290
     0
176
     1
 40
1.0
176
     1
 40
1.0
176
     1
  0
VISUALSTYLE
  5
2E
102
{ACAD_REACTORS
330
29
102
}
330
29
100
AcDbVisualStyle
  2
Basic
 70
     7
177
     3
291
     1
 70
    58
 90
        1
176
     1
 90
        0
176
     1
 90
        1
176
     1
 90
        0
176
     1
 40
0.6
176
     1
 40
30.0
176
     1
 62
     7
176
     1
 90
        0
176
     1
 90
        4
176
     1
 62
     7
176
     1
 62
   257
176
     1
 90
        1
176
     1
 90
        1
176
     1
 40
1.0
176
     1
 90
        8
176
     1
 62
     7
176
     1
 40
1.0
176
     1
 90
        1
176
     1
 90
        6
176
     1
 90
        2
176
     1
 62
     7
176
     1
 90
        5
176
     1
 90
        0
176
     1
 90
        0
176
     1
290
     0
176
     1
 90
        1
176
     1
 40
0.0
176
     1
 90
        0
176
     1
290
     0
176
     1
290
     1
176
     1
290
     1
176
     1
290
     0
176
     1
290
     0
176
     1
290
     0
176
     1
290
     0
176
     1
290
     0
176
     1
290
     0
176
     1
 90
       50
176
     1
 40
0.0
176
     1
 40
1.0
176
     1
 90
        0
176
     1
 62
    18
420
        0
176
     1
 90
       50
176
     1
 90
        3
176
     1
 62
     5
420
      255
176
     1
290
     0
176
     1
 90
       50
176
     1
 90
       50
176
     1
 90
       50
176
     1
290
     0
176
     1
 90
       50
176
     1
 62
   256
176
     0
 40
1.0
176
     0
 90
        2
176
     1
  1
strokes_ogs.tif
176
     1
290
     0
176
     1
 40
1.0
176
     1
 40
1.0
176
     1
  0
VISUALSTYLE
  5
35
102
{ACAD_REACTORS
330
29
102
}
330
29
100
AcDbVisualStyle
  2
Brighten
 70
    12
177
     3
291
     1
 70
    58
 90
        2
176
     1
 90
        2
176
     1
 90
        0
176
     1
 90
        0
176
     1
 40
0.6
176
     1
 40
30.0
176
     1
 62
     7
176
     1
 90
        1
176
     1
 90
        4
176
     1
 62
     7
176
     1
 62
   257
176
     1
 90
        1
176
     1
 90
        1
176
     1
 40
1.0
176
     1
 90
        8
176
     1
 62
     7
176
     1
 40
1.0
176
     1
 90
        1
176
     1
 90
        6
176
     1
 90
        2
176
     1
 62
     7
176
     1
 90
        5
176
     1
 90
        0
176
     1
 90
        0
176
     1
290
     0
176
     1
 90
        1
176
     1
 40
50.0
176
     1
 90
        0
176
     1
290
     0
176
     1
290
     1
176
     1
290
     1
176
     1
290
     0
176
     1
290
     0
176
     1
290
     0
176
     1
290
     0
176
     1
290
     0
176
     1
290
     0
176
     1
 90
       50
176
     1
 40
0.0
176
     1
 40
1.0
176
     1
 90
        0
176
     1
 62
    18
420
        0
176
     1
 90
       50
176
     1
 90
        3
176
     1
 62
     5
420
      255
176
     1
290
     0
176
     1
 90
       50
176
     1
 90
       50
176
     1
 90
       50
176
     1
290
     0
176
     1
 90
       50
176
     1
 62
   256
176
     0
 40
1.0
176
     0
 90
        2
176
     1
  1
strokes_ogs.tif
176
     1
290
     0
176
     1
 40
1.0
176
     1
 40
1.0
176
     1
  0
VISUALSTYLE
  5
39
102
{ACAD_REACTORS
330
29
102
}
330
29
100
AcDbVisualStyle
  2
ColorChange
 70
    16
177
     3
291
     1
 70
    58
 90
        2
176
     1
 90
        2
176
     1
 90
        3
176
     1
 90
        0
176
     1
 40
0.6
176
     1
 40
30.0
176
     1
 62
     8
176
     1
 90
        1
176
     1
 90
        4
176
     1
 62
     7
176
     1
 62
   257
176
     1
 90
        1
176
     1
 90
        1
176
     1
 40
1.0
176
     1
 90
        8
176
     1
 62
     8
176
     1
 40
1.0
176
     1
 90
        1
176
     1
 90
        6
176
     1
 90
        2
176
     1
 62
     7
176
     1
 90
        5
176
     1
 90
        0
176
     1
 90
        0
176
     1
290
     0
176
     1
 90
        1
176
     1
 40
0.0
176
     1
 90
        0
176
     1
290
     0
176
     1
290
     1
176
     1
290
     1
176
     1
290
     0
176
     1
290
     0
176
     1
290
     0
176
     1
290
     0
176
     1
290
     0
176
     1
290
     0
176
     1
 90
       50
176
     1
 40
0.0
176
     1
 40
1.0
176
     1
 90
        0
176
     1
 62
    18
420
        0
176
     1
 90
       50
176
     1
 90
        3
176
     1
 62
     5
420
      255
176
     1
290
     0
176
     1
 90
       50
176
     1
 90
       50
176
     1
 90
       50
176
     1
290
     0
176
     1
 90
       50
176
     1
 62
   256
176
     0
 40
1.0
176
     0
 90
        2
176
     1
  1
strokes_ogs.tif
176
     1
290
     0
176
     1
 40
1.0
176
     1
 40
1.0
176
     1
  0
VISUALSTYLE
  5
32
102
{ACAD_REACTORS
330
29
102
}
330
29
100
AcDbVisualStyle
  2
Conceptual
 70
     9
177
     3
291
     0
 70
    58
 90
        3
176
     1
 90
        2
176
     1
 90
        0
176
     1
 90
        0
176
     1
 40
0.6
176
     1
 40
30.0
176
     1
 62
     7
176
     1
 90
        2
176
     1
 90
        2
176
     1
 62
     7
176
     1
 62
   257
176
     1
 90
        1
176
     1
 90
        1
176
     1
 40
179.0
176
     1
 90
        8
176
     1
 62
     7
176
     1
 40
1.0
176
     1
 90
        1
176
     1
 90
        6
176
     1
 90
        2
176
     1
 62
     7
176
     1
 90
        3
176
     1
 90
        0
176
     1
 90
        0
176
     1
290
     0
176
     1
 90
        1
176
     1
 40
0.0
176
     1
 90
        0
176
     1
290
     0
176
     1
290
     1
176
     1
290
     1
176
     1
290
     0
176
     1
290
     0
176
     1
290
     0
176
     1
290
     0
176
     1
290
     0
176
     1
290
     0
176
     1
 90
       50
176
     1
 40
0.0
176
     1
 40
1.0
176
     1
 90
        0
176
     1
 62
    18
420
        0
176
     1
 90
       50
176
     1
 90
        3
176
     1
 62
     5
420
      255
176
     1
290
     0
176
     1
 90
       50
176
     1
 90
       50
176
     1
 90
       50
176
     1
290
     0
176
     1
 90
       50
176
     1
 62
   256
176
     0
 40
1.0
176
     0
 90
        2
176
     1
  1
strokes_ogs.tif
176
     1
290
     0
176
     1
 40
1.0
176
     1
 40
1.0
176
     1
  0
VISUALSTYLE
  5
34
102
{ACAD_REACTORS
330
29
102
}
330
29
100
AcDbVisualStyle
  2
Dim
 70
    11
177
     3
291
     1
 70
    58
 90
        2
176
     1
 90
        2
176
     1
 90
        0
176
     1
 90
        0
176
     1
 40
0.6
176
     1
 40
30.0
176
     1
 62
     7
176
     1
 90
        1
176
     1
 90
        4
176
     1
 62
     7
176
     1
 62
   257
176
     1
 90
        1
176
     1
 90
        1
176
     1
 40
1.0
176
     1
 90
        8
176
     1
 62
     7
176
     1
 40
1.0
176
     1
 90
        1
176
     1
 90
        6
176
     1
 90
        2
176
     1
 62
     7
176
     1
 90
        5
176
     1
 90
        0
176
     1
 90
        0
176
     1
290
     0
176
     1
 90
        1
176
     1
 40
-50.0
176
     1
 90
        0
176
     1
290
     0
176
     1
290
     1
176
     1
290
     1
176
     1
290
     0
176
     1
290
     0
176
     1
290
     0
176
     1
290
     0
176
     1
290
     0
176
     1
290
     0
176
     1
 90
       50
176
     1
 40
0.0
176
     1
 40
1.0
176
     1
 90
        0
176
     1
 62
    18
420
        0
176
     1
 90
       50
176
     1
 90
        3
176
     1
 62
     5
420
      255
176
     1
290
     0
176
     1
 90
       50
176
     1
 90
       50
176
     1
 90
       50
176
     1
290
     0
176
     1
 90
       50
176
     1
 62
   256
176
     0
 40
1.0
176
     0
 90
        2
176
     1
  1
strokes_ogs.tif
176
     1
290
     0
176
     1
 40
1.0
176
     1
 40
1.0
176
     1
  0
VISUALSTYLE
  5
41
102
{ACAD_REACTORS
330
29
102
}
330
29
100
AcDbVisualStyle
  2
EdgeColorOff
 70
    22
177
     3
291
     1
 70
    58
 90
        2
176
     0
 90
        2
176
     0
 90
        0
176
     0
 90
        0
176
     0
 40
0.6
176
     0
 40
30.0
176
     0
 62
     7
176
     0
 90
        1
176
     0
 90
        4
176
     0
 62
     7
176
     0
 62
   257
176
     0
 90
        1
176
     0
 90
        1
176
     0
 40
1.0
176
     0
 90
        8
176
     2
 62
     7
176
     0
 40
1.0
176
     0
 90
        1
176
     0
 90
        6
176
     0
 90
        2
176
     0
 62
     7
176
     0
 90
        5
176
     0
 90
        0
176
     0
 90
        0
176
     0
290
     0
176
     0
 90
        1
176
     0
 40
0.0
176
     0
 90
        0
176
     0
290
     0
176
     1
290
     1
176
     1
290
     1
176
     1
290
     0
176
     1
290
     0
176
     1
290
     0
176
     1
290
     0
176
     1
290
     0
176
     1
290
     0
176
     1
 90
       50
176
     1
 40
0.0
176
     1
 40
1.0
176
     1
 90
        0
176
     1
 62
    18
420
        0
176
     1
 90
       50
176
     1
 90
        3
176
     1
 62
     5
420
      255
176
     1
290
     0
176
     1
 90
       50
176
     1
 90
       50
176
     1
 90
       50
176
     1
290
     0
176
     1
 90
       50
176
     1
 62
   256
176
     0
 40
1.0
176
     0
 90
        2
176
     1
  1
strokes_ogs.tif
176
     1
290
     0
176
     1
 40
1.0
176
     1
 40
1.0
176
     1
  0
VISUALSTYLE
  5
38
102
{ACAD_REACTORS
330
29
102
}
330
29
100
AcDbVisualStyle
  2
Facepattern
 70
    15
177
     3
291
     1
 70
    58
 90
        2
176
     1
 90
        2
176
     1
 90
        0
176
     1
 90
        0
176
     1
 40
0.6
176
     1
 40
30.0
176
     1
 62
     7
176
     1
 90
        1
176
     1
 90
        4
176
     1
 62
     7
176
     1
 62
   257
176
     1
 90
        1
176
     1
 90
        1
176
     1
 40
1.0
176
     1
 90
        8
176
     1
 62
     7
176
     1
 40
1.0
176
     1
 90
        1
176
     1
 90
        6
176
     1
 90
        2
176
     1
 62
     7
176
     1
 90
        5
176
     1
 90
        0
176
     1
 90
        0
176
     1
290
     0
176
     1
 90
        1
176
     1
 40
0.0
176
     1
 90
        0
176
     1
290
     0
176
     1
290
     1
176
     1
290
     1
176
     1
290
     0
176
     1
290
     0
176
     1
290
     0
176
     1
290
     0
176
     1
290
     0
176
     1
290
     0
176
     1
 90
       50
176
     1
 40
0.0
176
     1
 40
1.0
176
     1
 90
        0
176
     1
 62
    18
420
        0
176
     1
 90
       50
176
     1
 90
        3
176
     1
 62
     5
420
      255
176
     1
290
     0
176
     1
 90
       50
176
     1
 90
       50
176
     1
 90
       50
176
     1
290
     0
176
     1
 90
       50
176
     1
 62
   256
176
     0
 40
1.0
176
     0
 90
        2
176
     1
  1
strokes_ogs.tif
176
     1
290
     0
176
     1
 40
1.0
176
     1
 40
1.0
176
     1
  0
VISUALSTYLE
  5
2A
102
{ACAD_REACTORS
330
29
102
}
330
29
100
AcDbVisualStyle
  2
Flat
 70
     0
177
     3
291
     1
 70
    58
 90
        2
176
     1
 90
        1
176
     1
 90
        1
176
     1
 90
        2
176
     1
 40
0.6
176
     1
 40
30.0
176
     1
 62
     7
176
     1
 90
        0
176
     1
 90
        0
176
     1
 62
     7
176
     1
 62
   257
176
     1
 90
        1
176
     1
 90
        1
176
     1
 40
1.0
176
     1
 90
        8
176
     1
 62
     7
176
     1
 40
1.0
176
     1
 90
        1
176
     1
 90
        6
176
     1
 90
        2
176
     1
 62
     7
176
     1
 90
        5
176
     1
 90
        0
176
     1
 90
        0
176
     1
290
     0
176
     1
 90
       13
176
     1
 40
0.0
176
     1
 90
        0
176
     1
290
     0
176
     1
290
     1
176
     1
290
     1
176
     1
290
     0
176
     1
290
     0
176
     1
290
     0
176
     1
290
     0
176
     1
290
     0
176
     1
290
     0
176
     1
 90
       50
176
     1
 40
0.0
176
     1
 40
1.0
176
     1
 90
        0
176
     1
 62
    18
420
        0
176
     1
 90
       50
176
     1
 90
        3
176
     1
 62
     5
420
      255
176
     1
290
     0
176
     1
 90
       50
176
     1
 90
       50
176
     1
 90
       50
176
     1
290
     0
176
     1
 90
       50
176
     1
 62
   256
176
     0
 40
1.0
176
     0
 90
        2
176
     1
  1
strokes_ogs.tif
176
     1
290
     0
176
     1
 40
1.0
176
     1
 40
1.0
176
     1
  0
VISUALSTYLE
  5
2B
102
{ACAD_REACTORS
330
29
102
}
330
29
100
AcDbVisualStyle
  2
FlatWithEdges
 70
     1
177
     3
291
     1
 70
    58
 90
        2
176
     1
 90
        1
176
     1
 90
        1
176
     1
 90
        2
176
     1
 40
0.6
176
     1
 40
30.0
176
     1
 62
     7
176
     1
 90
        1
176
     1
 90
        0
176
     1
 62
     7
176
     1
 62
   257
176
     1
 90
        1
176
     1
 90
        1
176
     1
 40
1.0
176
     1
 90
        0
176
     1
 62
   257
176
     1
 40
1.0
176
     1
 90
        1
176
     1
 90
        6
176
     1
 90
        2
176
     1
 62
     7
176
     1
 90
        5
176
     1
 90
        0
176
     1
 90
        0
176
     1
290
     0
176
     1
 90
       13
176
     1
 40
0.0
176
     1
 90
        0
176
     1
290
     0
176
     1
290
     1
176
     1
290
     1
176
     1
290
     0
176
     1
290
     0
176
     1
290
     0
176
     1
290
     0
176
     1
290
     0
176
     1
290
     0
176
     1
 90
       50
176
     1
 40
0.0
176
     1
 40
1.0
176
     1
 90
        0
176
     1
 62
    18
420
        0
176
     1
 90
       50
176
     1
 90
        3
176
     1
 62
     5
420
      255
176
     1
290
     0
176
     1
 90
       50
176
     1
 90
       50
176
     1
 90
       50
176
     1
290
     0
176
     1
 90
       50
176
     1
 62
   256
176
     0
 40
1.0
176
     0
 90
        2
176
     1
  1
strokes_ogs.tif
176
     1
290
     0
176
     1
 40
1.0
176
     1
 40
1.0
176
     1
  0
VISUALSTYLE
  5
2C
102
{ACAD_REACTORS
330
29
102
}
330
29
100
AcDbVisualStyle
  2
Gouraud
 70
     2
177
     3
291
     1
 70
    58
 90
        2
176
     1
 90
        2
176
     1
 90
        1
176
     1
 90
        2
176
     1
 40
0.6
176
     1
 40
30.0
176
     1
 62
     7
176
     1
 90
        0
176
     1
 90
        0
176
     1
 62
     7
176
     1
 62
   257
176
     1
 90
        1
176
     1
 90
        1
176
     1
 40
1.0
176
     1
 90
        0
176
     1
 62
     7
176
     1
 40
1.0
176
     1
 90
        1
176
     1
 90
        6
176
     1
 90
        2
176
     1
 62
     7
176
     1
 90
        5
176
     1
 90
        0
176
     1
 90
        0
176
     1
290
     0
176
     1
 90
       13
176
     1
 40
0.0
176
     1
 90
        0
176
     1
290
     0
176
     1
290
     1
176
     1
290
     1
176
     1
290
     0
176
     1
290
     0
176
     1
290
     0
176
     1
290
     0
176
     1
290
     0
176
     1
290
     0
176
     1
 90
       50
176
     1
 40
0.0
176
     1
 40
1.0
176
     1
 90
        0
176
     1
 62
    18
420
        0
176
     1
 90
       50
176
     1
 90
        3
176
     1
 62
     5
420
      255
176
     1
290
     0
176
     1
 90
       50
176
     1
 90
       50
176
     1
 90
       50
176
     1
290
     0
176
     1
 90
       50
176
     1
 62
   256
176
     0
 40
1.0
176
     0
 90
        2
176
     1
  1
strokes_ogs.tif
176
     1
290
     0
176
     1
 40
1.0
176
     1
 40
1.0
176
     1
  0
VISUALSTYLE
  5
2D
102
{ACAD_REACTORS
330
29
102
}
330
29
100
AcDbVisualStyle
  2
GouraudWithEdges
 70
     3
177
     3
291
     1
 70
    58
 90
        2
176
     1
 90
        2
176
     1
 90
        1
176
     1
 90
        2
176
     1
 40
0.6
176
     1
 40
30.0
176
     1
 62
     7
176
     1
 90
        1
176
     1
 90
        0
176
     1
 62
     7
176
     1
 62
   257
176
     1
 90
        1
176
     1
 90
        1
176
     1
 40
1.0
176
     1
 90
        0
176
     1
 62
   257
176
     1
 40
1.0
176
     1
 90
        1
176
     1
 90
        6
176
     1
 90
        2
176
     1
 62
     7
176
     1
 90
        5
176
     1
 90
        0
176
     1
 90
        0
176
     1
290
     0
176
     1
 90
       13
176
     1
 40
0.0
176
     1
 90
        0
176
     1
290
     0
176
     1
290
     1
176
     1
290
     1
176
     1
290
     0
176
     1
290
     0
176
     1
290
     0
176
     1
290
     0
176
     1
290
     0
176
     1
290
     0
176
     1
 90
       50
176
     1
 40
0.0
176
     1
 40
1.0
176
     1
 90
        0
176
     1
 62
    18
420
        0
176
     1
 90
       50
176
     1
 90
        3
176
     1
 62
     5
420
      255
176
     1
290
     0
176
     1
 90
       50
176
     1
 90
       50
176
     1
 90
       50
176
     1
290
     0
176
     1
 90
       50
176
     1
 62
   256
176
     0
 40
1.0
176
     0
 90
        2
176
     1
  1
strokes_ogs.tif
176
     1
290
     0
176
     1
 40
1.0
176
     1
 40
1.0
176
     1
  0
VISUALSTYLE
  5
31
102
{ACAD_REACTORS
330
29
102
}
330
29
100
AcDbVisualStyle
  2
Hidden
 70
     6
177
     3
291
     0
 70
    58
 90
        1
176
     1
 90
        2
176
     1
 90
        2
176
     1
 90
        0
176
     1
 40
0.6
176
     1
 40
30.0
176
     1
 62
     7
176
     1
 90
        2
176
     1
 90
        2
176
     1
 62
     7
176
     1
 62
   257
176
     1
 90
        2
176
     1
 90
        1
176
     1
 40
40.0
176
     1
 90
        0
176
     1
 62
   257
176
     1
 40
1.0
176
     1
 90
        1
176
     1
 90
        6
176
     1
 90
        2
176
     1
 62
     7
176
     1
 90
        3
176
     1
 90
        0
176
     1
 90
        0
176
     1
290
     0
176
     1
 90
        1
176
     1
 40
0.0
176
     1
 90
        0
176
     1
290
     0
176
     1
290
     1
176
     1
290
     1
176
     1
290
     0
176
     1
290
     0
176
     1
290
     0
176
     1
290
     0
176
     1
290
     0
176
     1
290
     0
176
     1
 90
       50
176
     1
 40
0.0
176
     1
 40
1.0
176
     1
 90
        0
176
     1
 62
    18
420
        0
176
     1
 90
       50
176
     1
 90
        3
176
     1
 62
     5
420
      255
176
     1
290
     0
176
     1
 90
       50
176
     1
 90
       50
176
     1
 90
       50
176
     1
290
     0
176
     1
 90
       50
176
     1
 62
   256
176
     0
 40
1.0
176
     0
 90
        2
176
     1
  1
strokes_ogs.tif
176
     1
290
     0
176
     1
 40
1.0
176
     1
 40
1.0
176
     1
  0
VISUALSTYLE
  5
3F
102
{ACAD_REACTORS
330
29
102
}
330
29
100
AcDbVisualStyle
  2
JitterOff
 70
    20
177
     3
291
     1
 70
    58
 90
        2
176
     0
 90
        2
176
     0
 90
        0
176
     0
 90
        0
176
     0
 40
0.6
176
     0
 40
30.0
176
     0
 62
     7
176
     0
 90
        1
176
     0
 90
        4
176
     0
 62
     7
176
     0
 62
   257
176
     0
 90
        1
176
     0
 90
        1
176
     0
 40
1.0
176
     0
 90
       10
176
     2
 62
     7
176
     0
 40
1.0
176
     0
 90
        1
176
     0
 90
        6
176
     0
 90
        2
176
     0
 62
     7
176
     0
 90
        5
176
     0
 90
        0
176
     0
 90
        0
176
     0
290
     0
176
     0
 90
        1
176
     0
 40
0.0
176
     0
 90
        0
176
     0
290
     0
176
     1
290
     1
176
     1
290
     1
176
     1
290
     0
176
     1
290
     0
176
     1
290
     0
176
     1
290
     0
176
     1
290
     0
176
     1
290
     0
176
     1
 90
       50
176
     1
 40
0.0
176
     1
 40
1.0
176
     1
 90
        0
176
     1
 62
    18
420
        0
176
     1
 90
       50
176
     1
 90
        3
176
     1
 62
     5
420
      255
176
     1
290
     0
176
     1
 90
       50
176
     1
 90
       50
176
     1
 90
       50
176
     1
290
     0
176
     1
 90
       50
176
     1
 62
   256
176
     0
 40
1.0
176
     0
 90
        2
176
     1
  1
strokes_ogs.tif
176
     1
290
     0
176
     1
 40
1.0
176
     1
 40
1.0
176
     1
  0
VISUALSTYLE
  5
37
102
{ACAD_REACTORS
330
29
102
}
330
29
100
AcDbVisualStyle
  2
Linepattern
 70
    14
177
     3
291
     1
 70
    58
 90
        2
176
     1
 90
        2
176
     1
 90
        0
176
     1
 90
        0
176
     1
 40
0.6
176
     1
 40
30.0
176
     1
 62
     7
176
     1
 90
        1
176
     1
 90
        4
176
     1
 62
     7
176
     1
 62
   257
176
     1
 90
        7
176
     1
 90
        7
176
     1
 40
1.0
176
     1
 90
        8
176
     1
 62
     7
176
     1
 40
1.0
176
     1
 90
        1
176
     1
 90
        6
176
     1
 90
        2
176
     1
 62
     7
176
     1
 90
        5
176
     1
 90
        0
176
     1
 90
        0
176
     1
290
     0
176
     1
 90
        1
176
     1
 40
0.0
176
     1
 90
        0
176
     1
290
     0
176
     1
290
     1
176
     1
290
     1
176
     1
290
     0
176
     1
290
     0
176
     1
290
     0
176
     1
290
     0
176
     1
290
     0
176
     1
290
     0
176
     1
 90
       50
176
     1
 40
0.0
176
     1
 40
1.0
176
     1
 90
        0
176
     1
 62
    18
420
        0
176
     1
 90
       50
176
     1
 90
        3
176
     1
 62
     5
420
      255
176
     1
290
     0
176
     1
 90
       50
176
     1
 90
       50
176
     1
 90
       50
176
     1
290
     0
176
     1
 90
       50
176
     1
 62
   256
176
     0
 40
1.0
176
     0
 90
        2
176
     1
  1
strokes_ogs.tif
176
     1
290
     0
176
     1
 40
1.0
176
     1
 40
1.0
176
     1
  0
VISUALSTYLE
  5
40
102
{ACAD_REACTORS
330
29
102
}
330
29
100
AcDbVisualStyle
  2
OverhangOff
 70
    21
177
     3
291
     1
 70
    58
 90
        2
176
     0
 90
        2
176
     0
 90
        0
176
     0
 90
        0
176
     0
 40
0.6
176
     0
 40
30.0
176
     0
 62
     7
176
     0
 90
        1
176
     0
 90
        4
176
     0
 62
     7
176
     0
 62
   257
176
     0
 90
        1
176
     0
 90
        1
176
     0
 40
1.0
176
     0
 90
        9
176
     2
 62
     7
176
     0
 40
1.0
176
     0
 90
        1
176
     0
 90
        6
176
     0
 90
        2
176
     0
 62
     7
176
     0
 90
        5
176
     0
 90
        0
176
     0
 90
        0
176
     0
290
     0
176
     0
 90
        1
176
     0
 40
0.0
176
     0
 90
        0
176
     0
290
     0
176
     1
290
     1
176
     1
290
     1
176
     1
290
     0
176
     1
290
     0
176
     1
290
     0
176
     1
290
     0
176
     1
290
     0
176
     1
290
     0
176
     1
 90
       50
176
     1
 40
0.0
176
     1
 40
1.0
176
     1
 90
        0
176
     1
 62
    18
420
        0
176
     1
 90
       50
176
     1
 90
        3
176
     1
 62
     5
420
      255
176
     1
290
     0
176
     1
 90
       50
176
     1
 90
       50
176
     1
 90
       50
176
     1
290
     0
176
     1
 90
       50
176
     1
 62
   256
176
     0
 40
1.0
176
     0
 90
        2
176
     1
  1
strokes_ogs.tif
176
     1
290
     0
176
     1
 40
1.0
176
     1
 40
1.0
176
     1
  0
VISUALSTYLE
  5
33
102
{ACAD_REACTORS
330
29
102
}
330
29
100
AcDbVisualStyle
  2
Realistic
 70
     8
177
     3
291
     0
 70
    58
 90
        2
176
     1
 90
        2
176
     1
 90
        0
176
     1
 90
        2
176
     1
 40
0.6
176
     1
 40
30.0
176
     1
 62
     7
176
     1
 90
        0
176
     1
 90
        0
176
     1
 62
     7
176
     1
 62
   257
176
     1
 90
        1
176
     1
 90
        1
176
     1
 40
1.0
176
     1
 90
        8
176
     1
 62
   257
176
     1
 40
1.0
176
     1
 90
        1
176
     1
 90
        6
176
     1
 90
        2
176
     1
 62
     7
176
     1
 90
        3
176
     1
 90
        0
176
     1
 90
        0
176
     1
290
     0
176
     1
 90
       13
176
     1
 40
0.0
176
     1
 90
        0
176
     1
290
     0
176
     1
290
     1
176
     1
290
     1
176
     1
290
     0
176
     1
290
     0
176
     1
290
     0
176
     1
290
     0
176
     1
290
     0
176
     1
290
     0
176
     1
 90
       50
176
     1
 40
0.0
176
     1
 40
1.0
176
     1
 90
        0
176
     1
 62
    18
420
        0
176
     1
 90
       50
176
     1
 90
        3
176
     1
 62
     5
420
      255
176
     1
290
     0
176
     1
 90
       50
176
     1
 90
       50
176
     1
 90
       50
176
     1
290
     0
176
     1
 90
       50
176
     1
 62
   256
176
     0
 40
1.0
176
     0
 90
        2
176
     1
  1
strokes_ogs.tif
176
     1
290
     0
176
     1
 40
1.0
176
     1
 40
1.0
176
     1
  0
VISUALSTYLE
  5
3E
102
{ACAD_REACTORS
330
29
102
}
330
29
100
AcDbVisualStyle
  2
Shaded
 70
    27
177
     3
291
     0
 70
    58
 90
        2
176
     1
 90
        2
176
     1
 90
        1
176
     1
 90
        2
176
     1
 40
0.6
176
     1
 40
30.0
176
     1
 62
     7
176
     1
 90
        0
176
     1
 90
        4
176
     1
 62
     7
176
     1
 62
   257
176
     1
 90
        1
176
     1
 90
        1
176
     1
 40
1.0
176
     1
 90
        8
176
     1
 62
   257
176
     1
 40
1.0
176
     1
 90
        1
176
     1
 90
        6
176
     1
 90
        2
176
     1
 62
     8
176
     1
 90
        3
176
     1
 90
        0
176
     1
 90
        0
176
     1
290
     0
176
     1
 90
        5
176
     1
 40
0.0
176
     1
 90
        0
176
     1
290
     0
176
     1
290
     1
176
     1
290
     1
176
     1
290
     0
176
     1
290
     0
176
     1
290
     0
176
     1
290
     0
176
     1
290
     0
176
     1
290
     0
176
     1
 90
       50
176
     1
 40
0.0
176
     1
 40
1.0
176
     1
 90
        0
176
     1
 62
    18
420
        0
176
     1
 90
       50
176
     1
 90
        3
176
     1
 62
     5
420
      255
176
     1
290
     0
176
     1
 90
       50
176
     1
 90
       50
176
     1
 90
       50
176
     1
290
     0
176
     1
 90
       50
176
     1
 62
   256
176
     0
 40
1.0
176
     0
 90
        2
176
     1
  1
strokes_ogs.tif
176
     1
290
     0
176
     1
 40
1.0
176
     1
 40
1.0
176
     1
  0
VISUALSTYLE
  5
3D
102
{ACAD_REACTORS
330
29
102
}
330
29
100
AcDbVisualStyle
  2
Shaded with edges
 70
    26
177
     3
291
     0
 70
    58
 90
        2
176
     1
 90
        2
176
     1
 90
        1
176
     1
 90
        2
176
     1
 40
0.6
176
     1
 40
30.0
176
     1
 62
     7
176
     1
 90
        1
176
     1
 90
        2
176
     1
 62
     7
176
     1
 62
   257
176
     1
 90
        2
176
     1
 90
        1
176
     1
 40
1.0
176
     1
 90
        8
176
     1
 62
   257
176
     1
 40
1.0
176
     1
 90
        1
176
     1
 90
        6
176
     1
 90
        2
176
     1
 62
     7
176
     1
 90
        3
176
     1
 90
        0
176
     1
 90
        0
176
     1
290
     0
176
     1
 90
        5
176
     1
 40
0.0
176
     1
 90
        0
176
     1
290
     0
176
     1
290
     1
176
     1
290
     1
176
     1
290
     0
176
     1
290
     0
176
     1
290
     0
176
     1
290
     0
176
     1
290
     0
176
     1
290
     0
176
     1
 90
       50
176
     1
 40
0.0
176
     1
 40
1.0
176
     1
 90
        0
176
     1
 62
    18
420
        0
176
     1
 90
       50
176
     1
 90
        3
176
     1
 62
     5
420
      255
176
     1
290
     0
176
     1
 90
       50
176
     1
 90
       50
176
     1
 90
       50
176
     1
290
     0
176
     1
 90
       50
176
     1
 62
   256
176
     0
 40
1.0
176
     0
 90
        2
176
     1
  1
strokes_ogs.tif
176
     1
290
     0
176
     1
 40
1.0
176
     1
 40
1.0
176
     1
  0
VISUALSTYLE
  5
3A
102
{ACAD_REACTORS
330
29
102
}
330
29
100
AcDbVisualStyle
  2
Shades of Gray
 70
    23
177
     3
291
     0
 70
    58
 90
        2
176
     1
 90
        2
176
     1
 90
        3
176
     1
 90
        0
176
     1
 40
0.6
176
     1
 40
30.0
176
     1
 62
     7
176
     1
 90
        2
176
     1
 90
        2
176
     1
 62
     7
176
     1
 62
     7
176
     1
 90
        1
176
     1
 90
        1
176
     1
 40
40.0
176
     1
 90
        8
176
     1
 62
     7
176
     1
 40
1.0
176
     1
 90
        1
176
     1
 90
        6
176
     1
 90
        2
176
     1
 62
     7
176
     1
 90
        3
176
     1
 90
        0
176
     1
 90
        0
176
     1
290
     0
176
     1
 90
        1
176
     1
 40
0.0
176
     1
 90
        0
176
     1
290
     0
176
     1
290
     1
176
     1
290
     1
176
     1
290
     0
176
     1
290
     0
176
     1
290
     0
176
     1
290
     0
176
     1
290
     0
176
     1
290
     0
176
     1
 90
       50
176
     1
 40
0.0
176
     1
 40
1.0
176
     1
 90
        0
176
     1
 62
    18
420
        0
176
     1
 90
       50
176
     1
 90
        3
176
     1
 62
     5
420
      255
176
     1
290
     0
176
     1
 90
       50
176
     1
 90
       50
176
     1
 90
       50
176
     1
290
     0
176
     1
 90
       50
176
     1
 62
   256
176
     0
 40
1.0
176
     0
 90
        2
176
     1
  1
strokes_ogs.tif
176
     1
290
     0
176
     1
 40
1.0
176
     1
 40
1.0
176
     1
  0
VISUALSTYLE
  5
3B
102
{ACAD_REACTORS
330
29
102
}
330
29
100
AcDbVisualStyle
  2
Sketchy
 70
    24
177
     3
291
     0
 70
    58
 90
        1
176
     1
 90
        2
176
     1
 90
        2
176
     1
 90
        0
176
     1
 40
0.6
176
     1
 40
30.0
176
     1
 62
     7
176
     1
 90
        2
176
     1
 90
        2
176
     1
 62
     7
176
     1
 62
     7
176
     1
 90
        1
176
     1
 90
        1
176
     1
 40
40.0
176
     1
 90
       11
176
     1
 62
     7
176
     1
 40
1.0
176
     1
 90
        1
176
     1
 90
        6
176
     1
 90
        2
176
     1
 62
     7
176
     1
 90
        6
176
     1
 90
        0
176
     1
 90
        0
176
     1
290
     0
176
     1
 90
        1
176
     1
 40
0.0
176
     1
 90
        0
176
     1
290
     0
176
     1
290
     1
176
     1
290
     1
176
     1
290
     0
176
     1
290
     0
176
     1
290
     0
176
     1
290
     0
176
     1
290
     0
176
     1
290
     0
176
     1
 90
       50
176
     1
 40
0.0
176
     1
 40
1.0
176
     1
 90
        0
176
     1
 62
    18
420
        0
176
     1
 90
       50
176
     1
 90
        3
176
     1
 62
     5
420
      255
176
     1
290
     0
176
     1
 90
       50
176
     1
 90
       50
176
     1
 90
       50
176
     1
290
     0
176
     1
 90
       50
176
     1
 62
   256
176
     0
 40
1.0
176
     0
 90
        2
176
     1
  1
strokes_ogs.tif
176
     1
290
     0
176
     1
 40
1.0
176
     1
 40
1.0
176
     1
  0
VISUALSTYLE
  5
36
102
{ACAD_REACTORS
330
29
102
}
330
29
100
AcDbVisualStyle
  2
Thicken
 70
    13
177
     3
291
     1
 70
    58
 90
        2
176
     1
 90
        2
176
     1
 90
        0
176
     1
 90
        0
176
     1
 40
0.6
176
     1
 40
30.0
176
     1
 62
     7
176
     1
 90
        1
176
     1
 90
        4
176
     1
 62
     7
176
     1
 62
   257
176
     1
 90
        1
176
     1
 90
        1
176
     1
 40
1.0
176
     1
 90
       12
176
     1
 62
     7
176
     1
 40
1.0
176
     1
 90
        1
176
     1
 90
        6
176
     1
 90
        2
176
     1
 62
     7
176
     1
 90
        5
176
     1
 90
        0
176
     1
 90
        0
176
     1
290
     0
176
     1
 90
        1
176
     1
 40
0.0
176
     1
 90
        0
176
     1
290
     0
176
     1
290
     1
176
     1
290
     1
176
     1
290
     0
176
     1
290
     0
176
     1
290
     0
176
     1
290
     0
176
     1
290
     0
176
     1
290
     0
176
     1
 90
       50
176
     1
 40
0.0
176
     1
 40
1.0
176
     1
 90
        0
176
     1
 62
    18
420
        0
176
     1
 90
       50
176
     1
 90
        3
176
     1
 62
     5
420
      255
176
     1
290
     0
176
     1
 90
       50
176
     1
 90
       50
176
     1
 90
       50
176
     1
290
     0
176
     1
 90
       50
176
     1
 62
   256
176
     0
 40
1.0
176
     0
 90
        2
176
     1
  1
strokes_ogs.tif
176
     1
290
     0
176
     1
 40
1.0
176
     1
 40
1.0
176
     1
  0
VISUALSTYLE
  5
30
102
{ACAD_REACTORS
330
29
102
}
330
29
100
AcDbVisualStyle
  2
Wireframe
 70
     5
177
     3
291
     0
 70
    58
 90
        0
176
     1
 90
        2
176
     1
 90
        0
176
     1
 90
        0
176
     1
 40
0.6
176
     1
 40
30.0
176
     1
 62
     7
176
     1
 90
        1
176
     1
 90
        4
176
     1
 62
     7
176
     1
 62
   257
176
     1
 90
        1
176
     1
 90
        1
176
     1
 40
1.0
176
     1
 90
        0
176
     1
 62
   257
176
     1
 40
1.0
176
     1
 90
        1
176
     1
 90
        6
176
     1
 90
        2
176
     1
 62
     7
176
     1
 90
        3
176
     1
 90
        0
176
     1
 90
        0
176
     1
290
     0
176
     1
 90
        1
176
     1
 40
0.0
176
     1
 90
        0
176
     1
290
     0
176
     1
290
     1
176
     1
290
     1
176
     1
290
     0
176
     1
290
     0
176
     1
290
     0
176
     1
290
     0
176
     1
290
     0
176
     1
290
     0
176
     1
 90
       50
176
     1
 40
0.0
176
     1
 40
1.0
176
     1
 90
        0
176
     1
 62
    18
420
        0
176
     1
 90
       50
176
     1
 90
        3
176
     1
 62
     5
420
      255
176
     1
290
     0
176
     1
 90
       50
176
     1
 90
       50
176
     1
 90
       50
176
     1
290
     0
176
     1
 90
       50
176
     1
 62
   256
176
     0
 40
1.0
176
     0
 90
        2
176
     1
  1
strokes_ogs.tif
176
     1
290
     0
176
     1
 40
1.0
176
     1
 40
1.0
176
     1
  0
VISUALSTYLE
  5
3C
102
{ACAD_REACTORS
330
29
102
}
330
29
100
AcDbVisualStyle
  2
X-Ray
 70
    25
177
     3
291
     0
 70
    58
 90
        2
176
     1
 90
        2
176
     1
 90
        1
176
     1
 90
        1
176
     1
 40
0.5
176
     1
 40
30.0
176
     1
 62
     7
176
     1
 90
        1
176
     1
 90
        0
176
     1
 62
     7
176
     1
 62
   257
176
     1
 90
        1
176
     1
 90
        1
176
     1
 40
1.0
176
     1
 90
        8
176
     1
 62
     7
176
     1
 40
1.0
176
     1
 90
        1
176
     1
 90
        6
176
     1
 90
        2
176
     1
 62
     7
176
     1
 90
        3
176
     1
 90
        0
176
     1
 90
        0
176
     1
290
     0
176
     1
 90
       13
176
     1
 40
0.0
176
     1
 90
        0
176
     1
290
     0
176
     1
290
     1
176
     1
290
     1
176
     1
290
     0
176
     1
290
     0
176
     1
290
     0
176
     1
290
     0
176
     1
290
     0
176
     1
290
     0
176
     1
 90
       50
176
     1
 40
0.0
176
     1
 40
1.0
176
     1
 90
        0
176
     1
 62
    18
420
        0
176
     1
 90
       50
176
     1
 90
        3
176
     1
 62
     5
420
      255
176
     1
290
     0
176
     1
 90
       50
176
     1
 90
       50
176
     1
 90
       50
176
     1
290
     0
176
     1
 90
       50
176
     1
 62
   256
176
     0
 40
1.0
176
     0
 90
        2
176
     1
  1
strokes_ogs.tif
176
     1
290
     0
176
     1
 40
1.0
176
     1
 40
1.0
176
     1
  0
DICTIONARYVAR
  5
237D
102
{ACAD_REACTORS
330
2379
102
}
330
2379
100
DictionaryVariables
280
     0
  1
1:1
  0
DICTIONARYVAR
  5
237B
102
{ACAD_REACTORS
330
2379
102
}
330
2379
100
DictionaryVariables
280
     0
  1
STANDARD
  0
DICTIONARYVAR
  5
237A
102
{ACAD_REACTORS
330
2379
102
}
330
2379
100
DictionaryVariables
280
     0
  1
STANDARD
  0
DICTIONARYVAR
  5
12753
102
{ACAD_REACTORS
330
2379
102
}
330
2379
100
DictionaryVariables
280
     0
  1
Imperial24
  0
DICTIONARYVAR
  5
12754
102
{ACAD_REACTORS
330
2379
102
}
330
2379
100
DictionaryVariables
280
     0
  1
Imperial24
  0
DICTIONARYVAR
  5
2384
102
{ACAD_REACTORS
330
2379
102
}
330
2379
100
DictionaryVariables
280
     0
  1
2
  0
DICTIONARYVAR
  5
2383
102
{ACAD_REACTORS
330
2379
102
}
330
2379
100
DictionaryVariables
280
     0
  1
1
  0
DICTIONARYVAR
  5
2382
102
{ACAD_REACTORS
330
2379
102
}
330
2379
100
DictionaryVariables
280
     0
  1
0
  0
DICTIONARYVAR
  5
237F
102
{ACAD_REACTORS
330
2379
102
}
330
2379
100
DictionaryVariables
280
     0
  1
0
  0
DICTIONARYVAR
  5
2380
102
{ACAD_REACTORS
330
2379
102
}
330
2379
100
DictionaryVariables
280
     0
  1
0
  0
DICTIONARYVAR
  5
237E
102
{ACAD_REACTORS
330
2379
102
}
330
2379
100
DictionaryVariables
280
     0
  1
2
  0
DICTIONARYVAR
  5
237C
102
{ACAD_REACTORS
330
2379
102
}
330
2379
100
DictionaryVariables
280
     0
  1
1
  0
DICTIONARYVAR
  5
2381
102
{ACAD_REACTORS
330
2379
102
}
330
2379
100
DictionaryVariables
280
     0
  1
127
  0
DICTIONARY
  5
6327
330
6F
100
AcDbDictionary
280
     1
281
     1
  0
DICTIONARY
  5
1A
330
19
100
AcDbDictionary
280
     1
281
     1
  3
BUMPTILE
360
1C
  3
DIFFUSETILE
360
1B
  3
OPACITYTILE
360
1F
  3
REFLECTIONTILE
360
1E
  3
REFRACTIONTILE
360
20
  3
SPECULARTILE
360
1D
  0
DICTIONARY
  5
12
330
11
100
AcDbDictionary
280
     1
281
     1
  3
BUMPTILE
360
14
  3
DIFFUSETILE
360
13
  3
OPACITYTILE
360
17
  3
REFLECTIONTILE
360
16
  3
REFRACTIONTILE
360
18
  3
SPECULARTILE
360
15
  0
DICTIONARY
  5
22
330
21
100
AcDbDictionary
280
     1
281
     1
  3
BUMPTILE
360
24
  3
DIFFUSETILE
360
23
  3
OPACITYTILE
360
27
  3
REFLECTIONTILE
360
26
  3
REFRACTIONTILE
360
28
  3
SPECULARTILE
360
25
  0
DICTIONARY
  5
231A
330
65
100
AcDbDictionary
280
     1
281
     1
  3
ACAD_ROUNDTRIP_2008_TABLESTYLE_CELLSTYLEMAP
360
12934
  0
XRECORD
  5
1C
102
{ACAD_REACTORS
330
1A
102
}
330
1A
100
AcDbXrecord
280
     1
270
     1
271
     1
  0
XRECORD
  5
1B
102
{ACAD_REACTORS
330
1A
102
}
330
1A
100
AcDbXrecord
280
     1
270
     1
271
     1
  0
XRECORD
  5
1F
102
{ACAD_REACTORS
330
1A
102
}
330
1A
100
AcDbXrecord
280
     1
270
     1
271
     1
  0
XRECORD
  5
1E
102
{ACAD_REACTORS
330
1A
102
}
330
1A
100
AcDbXrecord
280
     1
270
     1
271
     1
  0
XRECORD
  5
20
102
{ACAD_REACTORS
330
1A
102
}
330
1A
100
AcDbXrecord
280
     1
270
     1
271
     1
  0
XRECORD
  5
1D
102
{ACAD_REACTORS
330
1A
102
}
330
1A
100
AcDbXrecord
280
     1
270
     1
271
     1
  0
XRECORD
  5
14
102
{ACAD_REACTORS
330
12
102
}
330
12
100
AcDbXrecord
280
     1
270
     1
271
     1
  0
XRECORD
  5
13
102
{ACAD_REACTORS
330
12
102
}
330
12
100
AcDbXrecord
280
     1
270
     1
271
     1
  0
XRECORD
  5
17
102
{ACAD_REACTORS
330
12
102
}
330
12
100
AcDbXrecord
280
     1
270
     1
271
     1
  0
XRECORD
  5
16
102
{ACAD_REACTORS
330
12
102
}
330
12
100
AcDbXrecord
280
     1
270
     1
271
     1
  0
XRECORD
  5
18
102
{ACAD_REACTORS
330
12
102
}
330
12
100
AcDbXrecord
280
     1
270
     1
271
     1
  0
XRECORD
  5
15
102
{ACAD_REACTORS
330
12
102
}
330
12
100
AcDbXrecord
280
     1
270
     1
271
     1
  0
XRECORD
  5
24
102
{ACAD_REACTORS
330
22
102
}
330
22
100
AcDbXrecord
280
     1
270
     1
271
     1
  0
XRECORD
  5
23
102
{ACAD_REACTORS
330
22
102
}
330
22
100
AcDbXrecord
280
     1
270
     1
271
     1
  0
XRECORD
  5
27
102
{ACAD_REACTORS
330
22
102
}
330
22
100
AcDbXrecord
280
     1
270
     1
271
     1
  0
XRECORD
  5
26
102
{ACAD_REACTORS
330
22
102
}
330
22
100
AcDbXrecord
280
     1
270
     1
271
     1
  0
XRECORD
  5
28
102
{ACAD_REACTORS
330
22
102
}
330
22
100
AcDbXrecord
280
     1
270
     1
271
     1
  0
XRECORD
  5
25
102
{ACAD_REACTORS
330
22
102
}
330
22
100
AcDbXrecord
280
     1
270
     1
271
     1
  0
CELLSTYLEMAP
  5
12934
102
{ACAD_REACTORS
330
231A
102
}
330
231A
100
AcDbCellStyleMap
 90
        3
300
CELLSTYLE
  1
TABLEFORMAT_BEGIN
 90
        5
170
     1
 91
        0
 92
    32768
 62
   257
 93
        1
300
CONTENTFORMAT
  1
CONTENTFORMAT_BEGIN
 90
        0
 91
        0
 92
      512
 93
        0
300

 40
0.0
140
1.0
 94
        5
 62
     0
340
55
144
0.25
309
CONTENTFORMAT_END
171
     0
 94
        0
309
TABLEFORMAT_END
  1
CELLSTYLE_BEGIN
 90
        1
 91
        1
300
_TITLE
309
CELLSTYLE_END
300
CELLSTYLE
  1
TABLEFORMAT_BEGIN
 90
        5
170
     1
 91
        0
 92
        0
 62
   257
 93
        1
300
CONTENTFORMAT
  1
CONTENTFORMAT_BEGIN
 90
        0
 91
        0
 92
      512
 93
        0
300

 40
0.0
140
1.0
 94
        5
 62
     0
340
55
144
0.18
309
CONTENTFORMAT_END
171
     0
 94
        0
309
TABLEFORMAT_END
  1
CELLSTYLE_BEGIN
 90
        2
 91
        1
300
_HEADER
309
CELLSTYLE_END
300
CELLSTYLE
  1
TABLEFORMAT_BEGIN
 90
        5
170
     1
 91
        0
 92
        0
 62
   257
 93
        1
300
CONTENTFORMAT
  1
CONTENTFORMAT_BEGIN
 90
        0
 91
        0
 92
      512
 93
        0
300

 40
0.0
140
1.0
 94
        2
 62
     0
340
55
144
0.18
309
CONTENTFORMAT_END
171
     0
 94
        0
309
TABLEFORMAT_END
  1
CELLSTYLE_BEGIN
 90
        3
 91
        2
300
_DATA
309
CELLSTYLE_END
  0
ENDSEC
  0
SECTION
  2
ACDSDATA
 70
     2
 71
     8
  0
ACDSSCHEMA
 90
        0
  1
AcDb_Thumbnail_Schema
  2
AcDbDs::ID
280
    10
 91
        8
  2
Thumbnail_Data
280
    15
 91
        0
101
ACDSRECORD
 95
        0
 90
        1
  2
AcDbDs::TreatedAsObjectData
280
     1
291
     1
101
ACDSRECORD
 95
        0
 90
        2
  2
AcDbDs::Legacy
280
     1
291
     1
101
ACDSRECORD
  1
AcDbDs::ID
 90
        3
  2
AcDs:Indexable
280
     1
291
     1
101
ACDSRECORD
  1
AcDbDs::ID
 90
        4
  2
AcDbDs::HandleAttribute
280
     7
282
     1
  0
ACDSSCHEMA
 90
        1
  1
AcDbDs::TreatedAsObjectDataSchema
  2
AcDbDs::TreatedAsObjectData
280
     1
 91
        0
  0
ACDSSCHEMA
 90
        2
  1
AcDbDs::LegacySchema
  2
AcDbDs::Legacy
280
     1
 91
        0
  0
ACDSSCHEMA
 90
        3
  1
AcDbDs::IndexedPropertySchema
  2
AcDs:Indexable
280
     1
 91
        0
  0
ACDSSCHEMA
 90
        4
  1
AcDbDs::HandleAttributeSchema
  2
AcDbDs::HandleAttribute
280
     7
 91
        1
284
     1
  0
ACDSRECORD
 90
        0
  2
AcDbDs::ID
280
    10
320
6F
  2
Thumbnail_Data
280
    15
 94
     1691
310
89504E470D0A1A0A0000000D49484452000001000000007C0803000000B13B9E5A00000300504C5445000000FFFFFF0000000000000000000000000000000000000000000000000000000000330000660000990000CC0000FF0033000033330033660033990033CC0033FF0066000066330066660066990066CC0066FF0099
310
000099330099660099990099CC0099FF00CC0000CC3300CC6600CC9900CCCC00CCFF00FF0000FF3300FF6600FF9900FFCC00FFFF3300003300333300663300993300CC3300FF3333003333333333663333993333CC3333FF3366003366333366663366993366CC3366FF3399003399333399663399993399CC3399FF33CC00
310
33CC3333CC6633CC9933CCCC33CCFF33FF0033FF3333FF6633FF9933FFCC33FFFF6600006600336600666600996600CC6600FF6633006633336633666633996633CC6633FF6666006666336666666666996666CC6666FF6699006699336699666699996699CC6699FF66CC0066CC3366CC6666CC9966CCCC66CCFF66FF0066
310
FF3366FF6666FF9966FFCC66FFFF9900009900339900669900999900CC9900FF9933009933339933669933999933CC9933FF9966009966339966669966999966CC9966FF9999009999339999669999999999CC9999FF99CC0099CC3399CC6699CC9999CCCC99CCFF99FF0099FF3399FF6699FF9999FFCC99FFFFCC0000CC00
310
33CC0066CC0099CC00CCCC00FFCC3300CC3333CC3366CC3399CC33CCCC33FFCC6600CC6633CC6666CC6699CC66CCCC66FFCC9900CC9933CC9966CC9999CC99CCCC99FFCCCC00CCCC33CCCC66CCCC99CCCCCCCCCCFFCCFF00CCFF33CCFF66CCFF99CCFFCCCCFFFFFF0000FF0033FF0066FF0099FF00CCFF00FFFF3300FF3333
310
FF3366FF3399FF33CCFF33FFFF6600FF6633FF6666FF6699FF66CCFF66FFFF9900FF9933FF9966FF9999FF99CCFF99FFFFCC00FFCC33FFCC66FFCC99FFCCCCFFCCFFFFFF00FFFF33FFFF66FFFF99FFFFCCFFFFFF0000000D0D0D1A1A1A2828283535354343435050505D5D5D6B6B6B787878868686939393A1A1A1AEAEAEBB
310
BBBBC9C9C9D6D6D6E4E4E4F1F1F1FFFFFF0000000000000000000000000000000000000000000000000000000000003AE5ACE9000003564944415478DAED9B4B7683300C45BD1C4DB4FF5956E26D306FEA3F24B6E59414CB3C9DB6A189394197275918614CD336737303000000000000000000000000000000000000000000
310
806CB43328E08600EC8B9DFCD53485C81A005E589CFFED13C4D659003E399DCF61F30360BFF9C1D967410498EB095401706901404B05FC6255D5B80FC2202A76FD529C7DAA00F607E63787017805D8AAB638EE52BE56F7980480ED0028F714014861C2664600473537154ABC7367090086B3369B21E0B259F4590E6000D9E5
310
0AF0C75C554004101C4A69A005208D91EC713980220EEAC3D3DF8E3BB60160AA598089DD5CFDD4E7A31FA2CCFBC891296027997914E08AB9EC91244711D32177A80E8114D465BA6E1CDFAF4E3816C1FC148C0CC02301784C99035241DB4DD20E40D88D962984E469FD0FA5304F5C0A8F020803DD96ED158EE5F5265D71E665
310
000692F458E1E8AE30D3A7E4E63F3B1F809124CD69A0090A685E3BEDF0D0E1FF596601F1D5CD7B007297AE5C76ADD50186462BC13F01987145E835AD37D77FDE2CA05C24EAB3000CDA7FACA1AA01E012BC1585FEE5B75E36D1017E4B0113DC79DACE3ABEAFDF47993D04B4DA790094DE48FD0200BA2980DB87000000000000
310
00000000000000000000000000000000000080760083DDCFA4F5018B5E87C871B309611905506C610EEE4B00B8D66F16A29A1B409271E8F7287A40DB00243751F528800DD1BEF5BB6DF1CEB83604B51C90BAC338F7C8F5DCE7A2F98B35030819C0841FFFCA82B31F01689241A545263B1FBD6B0230A1A1F4D056A93804D259
310
64516A4BCDEFB90B5E3D004EBA1610C83D82463C6DA800603200D391402226183D3F00E6625E33FD2430D851353F80F4501B719E10EC8D00E40EEED032D9F368A77F55A5D05B00AEC92B86802B086DAFEBCF3D5FC245F1AC1C8077B6EC92B6F5E779F2A583E7A6680E780FA0E8F262B6C55B55F743E9E8072D712D9018F85F
310
41DB1B17C356B818F26110DD973CCEE64769690F14AC0899AC0191579ABA236500C2638C62AF147ADF0310BADECDCA8665F1FA47C38BDC2A5B45B7131D5A0EC0DD4300000000000000000000000000000000000000000000000000000000000000000000001604B0C928D01B5B01C0B6B721FF17200000BF11204D04EB0500
310
92E01300D5ECCE002451803A6011000B58DBC31FA257540E723BAB8B0000000049454E44AE426082
  0
ENDSEC
  0
EOF
